новый адрес
Ссылка на приватное зеркало всего за 1$. Внимание количество ограничено!!!

iTunes

1+1

iTunes

мы

WEB-DL

1

iTunes

Чернобыль

iTunes

Ральф против интернета

Лицензия

ПШазам

Лицензия

Оно 2

Лицензия

30
pack

Вам бонус

ВАЖНО

!!Акция!!

Alien_RageХит недели

RePack

Resident Evil 21

ИГРА 18+

pack

RePack

jed

!!Акция!!

Alien_Rage

RePack

fifa19

RePack

Assassins Creed: Odyssey

RePack

NEED FOR SPEED™ PAYBACK

3 сезон

9 сезон

Бесстыжие 9 сезон

Все сериалы

все сериалы на PB.wtf

RePack

FAR CRY 5
Ребята, катастрофически не хватает 1900р. для оплаты серверов за Октябрь (всвязи с блокировками трафик упал в 3 раза), 1-2р., выручайте.
  

Крипто / Crypto (Джон Сталберг) [2019, триллер, драма, криминал, WEB-DLRip-AVC] MVO [HDRezka Studio] pb.wtf

Крипто через торрент pb.wtf

Размер: 1.76 GB | Добавлен: 7 мес. назад | Торрент скачан:255 раз
Скачать  

28-04-2019 10:13 Крипто Скачать торрент  

Крипто / Crypto Год выпуска: 2019
Страна: США
Жанр: триллер, драма, криминал
Продолжительность: 01:45:54
Перевод: Профессиональный (многоголосый) | HDRezka Studio
Субтитры: Английские

Режиссер: Джон Сталберг

rating

В ролях:

Курт Рассел, Люк Хемсворт, Алексис Бледел, Винсент Картайзер, Джилл Хеннесси, Бо Напп, Малая Ривера Дрю, Марели Миниутти, Марша Дитлайн, Джереми Харрис

Описание:

В центре истории находится Мартин — сотрудник банка, работающий в отделе по борьбе с отмыванием денег. Несмотря на то, что мужчина прекрасно справляется со своими обязанностями, босс решает отправить его в длительную командировку в родной город. Мартин не в восторге от провинциальной жизни, но приступает к работе и неожиданно сталкивается с подозрительными денежными потоками, которые проходят через местную галерею, продающую картины на миллионы долларов в криптовалюте.

Качество: WEB-DLRip-AVC
Формат: MKV

Видео: MPEG-4 AVC, 1735 Кбит/с, 1024x384
Аудио#1: Русский (AC3, 2 ch, 256 Кбит/с)
Аудио#2: Английский (AC3, 6 ch, 384 Кбит/с)
скриншот  скриншот  скриншот  скриншот  

Общее
Уникальный идентификатор: 204796657412368190726826515272617125385 (0x9A1266C8D7474690AAD2DB3DEA1F6609)
Полное имя: D:\Kripto.2019..MVO.WEB-DLRip (AVC).2019..MVO.WEB-DLRip (AVC).mkv
Формат: Matroska
Версия формата: Version 4
Размер файла: 1,76 Гбайт
Продолжительность: 1 ч. 45 м.
Общий поток: 2376 Кбит/сек
Дата кодирования: UTC 2019-04-28 04:35:28
Программа кодирования: mkvmerge v8.3.0 ('Over the Horizon') 64bit
Библиотека кодирования: libebml v1.3.1 + libmatroska v1.4.2

Видео
Идентификатор: 1
Формат: AVC
Формат/Информация: Advanced Video Codec
Профиль формата: High@L4.1
Настройки формата: CABAC / 11 Ref Frames
Параметр CABAC формата: Да
Параметр RefFrames формата: 11 кадров
Идентификатор кодека: V_MPEG4/ISO/AVC
Продолжительность: 1 ч. 45 м.
Битрейт: 1735 Кбит/сек
Ширина: 1024 пикселя
Высота: 384 пикселя
Соотношение сторон: 2,667
Режим частоты кадров: Постоянный
Частота кадров: 23,976 (24000/1001) кадра/сек
Цветовое пространство: YUV
Субдискретизация насыщенности: 4:2:0
Битовая глубина: 8 бит
Тип развёртки: Прогрессивная
Бит/(Пиксели*Кадры): 0.184
Размер потока: 1,28 Гбайт (73%)
Библиотека кодирования: x264 core 148 r2638 7599210
Настройки программы: cabac=1 / ref=11 / deblock=1:-1:-1 / analyse=0x3:0x133 / me=umh / subme=9 / psy=1 / psy_rd=1.00:0.10 / mixed_ref=1 / me_range=16 / chroma_me=1 / trellis=2 / 8x8dct=1 / cqm=0 / deadzone=21,11 / fast_pskip=0 / chroma_qp_offset=-3 / threads=6 / lookahead_threads=1 / sliced_threads=0 / nr=0 / decimate=1 / interlaced=0 / bluray_compat=0 / constrained_intra=0 / bframes=2 / b_pyramid=2 / b_adapt=2 / b_bias=0 / direct=3 / weightb=1 / open_gop=0 / weightp=2 / keyint=250 / keyint_min=23 / scenecut=40 / intra_refresh=0 / rc_lookahead=50 / rc=2pass / mbtree=1 / bitrate=1735 / ratetol=1.0 / qcomp=0.60 / qpmin=0 / qpmax=69 / qpstep=4 / cplxblur=20.0 / qblur=0.5 / ip_ratio=1.40 / aq=1:1.00
Default: Да
Forced: Нет

Аудио #1
Идентификатор: 2
Формат: AC-3
Формат/Информация: Audio Coding 3
Коммерческое название: Dolby Digital
Идентификатор кодека: A_AC3
Продолжительность: 1 ч. 45 м.
Вид битрейта: Постоянный
Битрейт: 256 Кбит/сек
Каналы: 2 канала
Channel layout: L R
Частота: 48,0 КГц
Частота кадров: 31,250 кадров/сек (1536 SPF)
Битовая глубина: 16 бит
Метод сжатия: С потерями
Размер потока: 194 Мбайт (11%)
ServiceKind/String: Complete Main
Default: Да
Forced: Нет

Аудио #2
Идентификатор: 3
Формат: AC-3
Формат/Информация: Audio Coding 3
Коммерческое название: Dolby Digital
Идентификатор кодека: A_AC3
Продолжительность: 1 ч. 45 м.
Вид битрейта: Постоянный
Битрейт: 384 Кбит/сек
Каналы: 6 каналов
Channel layout: L R C LFE Ls Rs
Частота: 48,0 КГц
Частота кадров: 31,250 кадров/сек (1536 SPF)
Битовая глубина: 16 бит
Метод сжатия: С потерями
Размер потока: 291 Мбайт (16%)
ServiceKind/String: Complete Main
Default: Нет
Forced: Нет

Общее
Полное имя: D:\Kripto.2019..MVO.WEB-DLRip (AVC).2019..MVO.WEB-DLRip (AVC).srt
Формат: SubRip
Размер файла: 100 Кбайт

Текст
Формат: SubRip
Метод сжатия: Без потерь

pb.wtf



Скачать Крипто через торрент https://c.radikal.ru/c38/1904/3c/d3dc909a78ad.jpg Скачать фильм Крипто через торрент бесплантно в хорошем качестве Описание: В центре истории находится Мартин — сотрудник банка, работающий в отделе по борьбе с отмыванием денег. Несмотря на то, что ... 10 10 12
Торрент: Зарегистрирован [2019-04-28 10:13] · скачан: 255 раз
Статус: T временная
Размер: 1.76 GB
Как cкачать? Как скачать Крипто через торрент | qTorrent

% Раздел Тема Автор DL S | L
T Фильмы [HD 720p, 1080p] (Хороший звук DUB, MVO) [ 11.03 GB ] Крипто / Crypto [2019 BDRip 1080p] MVO [HDrezka Studio] bober100 Скачать
1 | 0
T Фильмы 2019 [DVDrip, WEB-DLRip, HDrip] (DUB, MVO) [ 1.46 GB ] Крипто / Crypto [2019 HDRip] MVO [HDRezka Studio] - ExKinoRay Enigma2010 Скачать
11 | 0
T Фильмы (WEB-DL 720p, 1080p) [ 3.86 GB ] Крипто / Crypto [2019 WEB-DL 1080p] MVO [HDRezka Studio] - ExKinoRay Enigma2010 Скачать
20 | 1

28-11-2019 20:33  

Отключить всю рекламу на сайте

07-05-2019 21:49 Крипто Скачать торрент  

Хорошее кино))pb.wtf



    Дорогой пользователь! Огромная просьба, поблагодарите релизера, оцените раздачу и оставьте свои комментарий, если Вы скачали Крипто через торрент бесплатно! Внесите свою лепту в развитие PiratBit!
    Комментировать посты могут только пользователи прошедшие не сложную регистрацию
    Показать сообщения:    

    Крипто через торрент
    Скачать бесплатно Крипто
    Крипто скачать торрент
    Крипто смотреть онлайн
    Cкачать фильм Крипто бесплатно
    Крипто скачать торрент в хорошем качестве
    Крипто смотреть онлайн бесплатно в хорошем качестве


    Вы не можете начинать темы
    Вы не можете отвечать на сообщения
    Вы не можете редактировать свои сообщения
    Вы не можете удалять свои сообщения
    Вы не можете голосовать в опросах
    Вы не можете прикреплять файлы к сообщениям
    Вы можете скачивать файлы