Ссылка на приватное зеркало нашего сайта всего за 1$. Внимание количество ограничено!!!

2 сезон

iTunes

1 сезон

1

iTunes

iTunes

iTunes

1 сезон

RePack

30

ИГРА 18+

pack

ВАЖНО

!!Акция!!

Alien_RageХит недели

RePack

MK11
pack

Забери бонус

RePack

jed

!!Акция!!

Alien_Rage

RePack

fifa19

RePack

Assassins Creed: Odyssey

RePack

NEED FOR SPEED™ PAYBACK

4 сезон

9 сезон

Бесстыжие 9 сезон

Все сериалы

все сериалы на PB.wtf

RePack

FAR CRY 5
  

Смерш / Серии: 1-12 из 12 (Олег Фомин) [2019, Детектив, боевик, история, военный, драма, WEB-DL 1080p] pb.wtf

Смерш через торрент pb.wtf

Раздают: 1 [ 0 KB/s ]
Размер: 20.06 GB | Добавлен: 1 год 5 мес. назад | Торрент скачан:230 раз
Скачать  

28-04-2019 16:41 Смерш Скачать торрент  

Смерш Год выпуска: 2019
Страна: Россия
Жанр: Детектив, боевик, история, военный, драма
Продолжительность: ~ 00:48:00 серия
Субтитры: отсутствуют

Режиссер: Олег Фомин



В ролях:

Алексей Макаров, Владислав Котлярский, Олег Фомин, Леонид Громов, Николай Козак, Александр Обласов, Анатолий Гущин, Александра Богданова, Евгения Малахова, Светлана Степанковская, Денис Константинов, Дмитрий Лавров, Максим Литовченко, Михаил Дорожкин, Андрей Пискарёв, Олег Мазуров, Артём Григорьев, Алексей Овсянников, Дмитрий Первушин, Алексей Сергеев, Александр Алексеев, Ольга Веникова, Юрий Анпилогов, Сослан Фидаров, Евгений Мундум, Сергей Шарифуллин

Описание:

История противостояния секретной разведслужбы СССР и Третьего Рейха в годы Великой Отечественной войны. В центре сюжета — судьба офицера Красной армии Георгия Волкова, который ведёт ожесточённую борьбу со своим заклятым врагом — агентом Абвера Конрадом фон Бютцевом. История начинается 21 июня 1941 года. Волков везёт в Советский Союз партию изумрудов по торговому договору между СССР и Германией, а также секретные документы, ценность которых выше любых драгоценных камней. Начинается война. Поезд, в котором едет Волков, захватывают немцы. Становится ясно, что ради важных агентурных сведений Бютцев готов пойти на что угодно…

Качество: WEB-DL 1080p
Формат: MKV

Видео: 1920х1080 (16:9), 25 fps, AVC MPEG-4 (x264), High@L4.0 ~ 5100 kbps avg, 0.097 bit/pixel
Аудио: 48 kHz, AC3, 2 ch, 192 kbps avg
скриншот  скриншот  скриншот  скриншот  

Общее
Уникальный идентификатор : 251116798949765101051523304981269174179 (0xBCEB56155F163167AFBEB54470C9D7A3)
Полное имя : D:\Smersh.2019.WEB-DL.(1080p).ExKinoRay\Smersh.(01.seriya).2019.WEB-DL.(1080p).ExKinoRay.mkv
Формат : Matroska
Версия формата : Version 4 / Version 2
Размер файла : 1,68 Гбайт
Продолжительность : 45 м. 29 с.
Общий поток : 5294 Кбит/сек
Дата кодирования : UTC 2019-04-29 17:13:27
Программа кодирования : mkvmerge v7.8.0 ('River Man') 32bit built on Mar 27 2015 16:18:02
Библиотека кодирования : libebml v1.3.1 + libmatroska v1.4.2

Видео
Идентификатор : 1
Формат : AVC
Формат/Информация : Advanced Video Codec
Профиль формата : High@L4
Параметр CABAC формата : Да
Параметр RefFrames формата : 4 кадра
Идентификатор кодека : V_MPEG4/ISO/AVC
Продолжительность : 45 м. 29 с.
Битрейт : 5096 Кбит/сек
Ширина : 1920 пикселей
Высота : 1080 пикселей
Соотношение сторон : 16:9
Режим частоты кадров : Постоянный
Частота кадров : 25,000 кадров/сек
Цветовое пространство : YUV
Субдискретизация насыщенности : 4:2:0
Битовая глубина : 8 бит
Тип развёртки : Прогрессивная
Бит/(Пиксели*Кадры) : 0.096
Размер потока : 1,59 Гбайт (94%)
Default : Да
Forced : Нет

Аудио
Идентификатор : 2
Формат : AC-3
Формат/Информация : Audio Coding 3
Расширение режима : CM (complete main)
Параметр Endianness формата : Big
Идентификатор кодека : A_AC3
Продолжительность : 45 м. 29 с.
Вид битрейта : Постоянный
Битрейт : 192 Кбит/сек
Каналы : 2 канала
Расположение каналов : Front: L R
Частота : 48,0 КГц
Частота кадров : 31,250 кадров/сек (1536 spf)
Метод сжатия : С потерями
Размер потока : 62,5 Мбайт (4%)
Язык : Russian
Default : Да
Forced : Нет

Внимание! Раздача ведётся путём добавления новых серий; при каждом добавлении создаётся новый торрент.
Чтобы начать докачку новой серии, пользователям необходимо сделать следующее:
1. Остановить скачивание;
2. Удалить старый торрент у себя из клиента (старые серии удалять не надо);
3. Скачать новый торрент и запустить его у себя в клиенте вместо старого, при этом указать клиенту путь в старую папку куда и должно происходить скачивание новых серий. Ваш клиент при этом должен произвести хеширование (проверку) старой папки и будет докачивать только те серии, которых у вас ещё нет. Старые серии при этом не удаляются, а продолжают раздаваться! Eсли вы уже удалили старые серии, то предотвратить повторную закачку старых серий можно, отжав галочку в соответствующих местах при запуске нового торрента.
pb.wtf



Скачать Смерш через торрент https://i109.fastpic.ru/big/2019/0421/98/5658fa46a2fcf9e4cb6cf3c84a9eeb98.jpg Скачать фильм Смерш через торрент бесплантно в хорошем качестве Описание: История противостояния секретной разведслужбы СССР и Третьего Рейха в годы Великой Отечественной войны. В центре сюжета — судьба ... 9.5 10 25
Торрент: Зарегистрирован [2019-04-29 18:41] · скачан: 230 раз
Статус: √ проверено
Размер: 20.06 GB
Как cкачать? Как скачать Смерш через торрент | qTorrent

% Раздел Тема Автор DL S | L
Наши сериалы [ 13.09 GB ] Смерш / Серии: 1-12 из 12 [2019 история военный WEB-DL 720p] bober100 Скачать
1 | 0
Наши сериалы [ 8.28 GB ] Смерш / Серии: 1-12 из 12 [2019 история военный HDTVRip-AVC] aleksan55 Скачать
3 | 0
Наши сериалы [ 6.76 GB ] Смерш / Серии: 1-12 из 12 [2019 история военный WEB-DLRip-AVC] bober100 Скачать
1 | 0
Наши сериалы [ 6.8 GB ] Смерш / Серии: 1-12 из 12 [2019 история военный WEB-DLRip] bober100 Скачать
1 | 0


Последний раз редактировалось: bober100 (2019-04-29 18:41), всего редактировалось 1 раз

28-11-2019 20:33  

Отключить всю рекламу на сайте

29-04-2019 18:24 Смерш Скачать торрент  

ктось добренький может отзыв запиндюрить на фильму?pb.wtf



30-04-2019 02:47 Смерш Скачать торрент  

хороший сериал.посмотрел с удовольствием.pb.wtf



06-05-2019 16:23 Смерш Скачать торрент  

Только непонятно причём тут смерш? На дворе 1941-42г.г., СМЕРШ организован в апреле 43-го. И ещё, какие нах офицеры в 41 году?? Его бы только за это признание там же и грохнули.. Короче клюква, от нефиг делать смотреть можно, если всерьёз не воспринимать.pb.wtf



    Дорогой пользователь! Огромная просьба, поблагодарите релизера, оцените раздачу и оставьте свои комментарий, если Вы скачали Смерш через торрент бесплатно! Внесите свою лепту в развитие PiratBit!
    Комментировать посты могут только пользователи прошедшие не сложную регистрацию
    Показать сообщения:    

    Смерш через торрент
    Скачать бесплатно Смерш
    Смерш скачать торрент
    Смерш смотреть онлайн
    Cкачать фильм Смерш бесплатно
    Смерш скачать торрент в хорошем качестве
    Смерш смотреть онлайн бесплатно в хорошем качестве


    Вы не можете начинать темы
    Вы не можете отвечать на сообщения
    Вы не можете редактировать свои сообщения
    Вы не можете удалять свои сообщения
    Вы не можете голосовать в опросах
    Вы не можете прикреплять файлы к сообщениям
    Вы можете скачивать файлы