Ссылка на приватное зеркало всего за 1$. Внимание количество ограничено!!!

OK

1+1

iTunes

мы

OK

1

WEB-DLRip

Джокер

Пифагор

Ведьмак / The Witcher сериал

iTunes

ПШазам

ОК

Оно 2

iTunes

30
pack

Вам бонус

ВАЖНО

!!Акция!!

Alien_RageХит недели

RePack

Resident Evil 21

ИГРА 18+

pack

RePack

jed

RePack

fifa19

RePack

Assassins Creed: Odyssey

RePack

NEED FOR SPEED™ PAYBACK

4 сезон

9 сезон

Бесстыжие 9 сезон

Все сериалы

все сериалы на PB.wtf

RePack

FAR CRY 5
  

Задушен мамашами / Smothered by Mothers (Брайан Херцлингер) [2019, комедия, WEB-DL 720p] MVO [AlphaProject] pb.wtf

Задушен мамашами через торрент pb.wtf

Размер: 3.72 GB | Добавлен: 8 мес. назад | Торрент скачан:29 раз
Скачать  

28-04-2019 17:07 Задушен мамашами Скачать торрент  

Задушен мамашами / Smothered by Mothers Год выпуска: 2019
Страна: США
Жанр: комедия
Продолжительность: 01:32:39
Перевод: Любительский (многоголосый) | AlphaProject
Субтитры: отсутствуют

Режиссер: Брайан Херцлингер

rating

В ролях:

Шеннон Браун, Хизер Матараццо, Джим О'Хейр, Берт Янг, Элис Эмтер, Джульетт Беннетт, Чак Ардеззон, Кеннет Брайан Джеймс, Джонатан Яскофф, Джэми Бернадетт

Описание:

Бобби Дэвис - успешный футболист и миллионер, но однажды утром он просыпается почти банкротом. Оказывается, его менеджер потерял почти все деньги Бобби. Вдобавок к этому, сразу три женщины оказываются беременны... конечно, от Бобби. Кажется, что ситуация не может стать еще хуже - но на самом деле, это только начало.

Качество: WEB-DL 720p
Формат: MKV

Видео: h.264,5 362 Кбит/с, 1280x678
Аудио: Русский, (AC3, 2 ch, 384 Кбит/с)
скриншот  скриншот  скриншот  

Общее
Уникальный идентификатор : 190682322613395036951767770272065330403 (0x8F74145A05EE25C7A373EBDC358B1CE3)
Полное имя : D:\Smothered.by.mothers.2019.Pa.WEB-DL.72Op.mkv
Формат : Matroska
Версия формата : Version 2
Размер файла : 3,72 Гбайт
Продолжительность : 1 ч. 32 м.
Режим общего битрейта : Переменный
Общий поток : 5748 Кбит/сек
Дата кодирования : UTC 2019-04-28 13:55:42
Программа кодирования : mkvmerge v8.3.0 ('Over the Horizon') 64bit
Библиотека кодирования : libebml v1.3.1 + libmatroska v1.4.2

Видео
Идентификатор : 1
Формат : AVC
Формат/Информация : Advanced Video Codec
Профиль формата : High@L4.1
Параметр CABAC формата : Да
Параметр RefFrames формата : 4 кадра
Идентификатор кодека : V_MPEG4/ISO/AVC
Продолжительность : 1 ч. 32 м.
Вид битрейта : Переменный
Битрейт : 5362 Кбит/сек
Максимальный битрейт : 6000 Кбит/сек
Ширина : 1280 пикселей
Высота : 678 пикселей
Соотношение сторон : 1,888
Режим частоты кадров : Постоянный
Частота кадров : 23,976 (24000/1001) кадра/сек
Стандарт вещания : Component
Цветовое пространство : YUV
Субдискретизация насыщенности : 4:2:0
Битовая глубина : 8 бит
Тип развёртки : Прогрессивная
Бит/(Пиксели*Кадры) : 0.252
Размер потока : 3,40 Гбайт (91%)
Default : Да
Forced : Нет
Цветовой диапазон : Limited
Основные цвета : BT.709
Характеристики трансфера : BT.709
Коэффициенты матрицы : BT.709

Аудио
Идентификатор : 2
Формат : AC-3
Формат/Информация : Audio Coding 3
Расширение режима : CM (complete main)
Параметр Endianness формата : Big
Идентификатор кодека : A_AC3
Продолжительность : 1 ч. 32 м.
Вид битрейта : Постоянный
Битрейт : 384 Кбит/сек
Каналы : 2 канала
Расположение каналов : Front: L R
Частота : 48,0 КГц
Частота кадров : 31,250 кадров/сек (1536 spf)
Метод сжатия : С потерями
Размер потока : 254 Мбайт (7%)
Default : Да
Forced : Нет

pb.wtf



Скачать Задушен мамашами через торрент https://a.radikal.ru/a24/1904/08/f8c170a06a91.jpg Скачать фильм Задушен мамашами через торрент бесплантно в хорошем качестве Описание: Бобби Дэвис - успешный футболист и миллионер, но однажды утром он просыпается почти банкротом. Оказывается, его менеджер потерял ... 10 10 3
Торрент: Зарегистрирован [2019-04-28 17:07] · скачан: 29 раз
Статус: T временная
Размер: 3.72 GB
Как cкачать? Как скачать Задушен мамашами через торрент | qTorrent

% Раздел Тема Автор DL S | L
T Фильмы (мультфильмы) cо спонсором показа (Новинки AVI/MKV) [ 1.37 GB ] Задушен мамашами / Smothered by Mothers [2019 WEB-DLRip] MVO [AlphaProject] bober100 Скачать
1 | 0

28-11-2019 20:33  

Отключить всю рекламу на сайте

    Дорогой пользователь! Огромная просьба, поблагодарите релизера, оцените раздачу и оставьте свои комментарий, если Вы скачали Задушен мамашами через торрент бесплатно! Внесите свою лепту в развитие PiratBit!
    Комментировать посты могут только пользователи прошедшие не сложную регистрацию
    Показать сообщения:    

    Задушен мамашами через торрент
    Скачать бесплатно Задушен мамашами
    Задушен мамашами скачать торрент
    Задушен мамашами смотреть онлайн
    Cкачать фильм Задушен мамашами бесплатно
    Задушен мамашами скачать торрент в хорошем качестве
    Задушен мамашами смотреть онлайн бесплатно в хорошем качестве


    Вы не можете начинать темы
    Вы не можете отвечать на сообщения
    Вы не можете редактировать свои сообщения
    Вы не можете удалять свои сообщения
    Вы не можете голосовать в опросах
    Вы не можете прикреплять файлы к сообщениям
    Вы можете скачивать файлы