Ссылка на приватное зеркало всего за 1$. Внимание количество ограничено!!!

OK

1+1

iTunes

мы

OK

1

WEB-DLRip

Джокер

Пифагор

Ведьмак / The Witcher сериал

iTunes

ПШазам

ОК

Оно 2

iTunes

30
pack

Вам бонус

ВАЖНО

!!Акция!!

Alien_RageХит недели

RePack

Resident Evil 21

ИГРА 18+

pack

RePack

jed

RePack

fifa19

RePack

Assassins Creed: Odyssey

RePack

NEED FOR SPEED™ PAYBACK

4 сезон

9 сезон

Бесстыжие 9 сезон

Все сериалы

все сериалы на PB.wtf

RePack

FAR CRY 5
  

Дзюнпэй, подумай ещё раз / Junpei, kangaenaose (Тосиюки Мориока) [2018, мелодрама, драма, криминал, BDRip 720p] MVO ["Синема УС"] pb.wtf

Дзюнпэй, подумай ещё раз через торрент pb.wtf

Размер: 4.73 GB | Добавлен: 9 мес. назад | Торрент скачан:10 раз
Скачать  

28-04-2019 19:24 Дзюнпэй, подумай ещё раз Скачать торрент  

Дзюнпэй, подумай ещё раз / Junpei, kangaenaose Год выпуска: 2018
Страна: Япония
Жанр: мелодрама, драма, криминал
Продолжительность: 01:37:14
Перевод: Любительский (многоголосый) | "Синема УС"
Субтитры: отсутствуют

Режиссер: Тосиюки Мориока

rating

В ролях:

Сюхэй Номура, Юрина Янаги, Кисэцу Фудзивара, Рэйко Катаока, Манака Киносита, Кацуя Маигума, Судзука Морита, Аманэ Окаяма, Гаку Сано, Томохито Сато

Описание:

Дзюнпэю 21 год, и он - якудза низшего звена. Однажды босс дает парню задание убить высокопоставленного якудза из конкурирующей группировки, и тот, желая впечатлить босса, принимает вызов.

Дзюнпэй встречает Кану, и они проводят вместе ночь. Молодой человек рассказывает ей о своём задании, и оно приводит Кану в волнение. Девушка останется с Дзюнпэем на последующие три дня, в течение которых он должен выполнить свою миссию.

Качество: BDRip 720p
Формат: MKV

Видео: h.264,6 518 Кбит/с, 1280x720
Аудио: Русский (AC3, 2 ch, 448 Кбит/с)
скриншот  скриншот  скриншот  

Общее
Уникальный идентификатор : 247802682302175968850712237276380557205 (0xBA6D0F846EF53A628A26F2D8547C6F95)
Полное имя : D:\Think.Again.Junpei.2018.P.BDRip.72Op.mkv
Формат : Matroska
Версия формата : Version 2
Размер файла : 4,73 Гбайт
Продолжительность : 1 ч. 37 м.
Режим общего битрейта : Переменный
Общий поток : 6968 Кбит/сек
Дата кодирования : UTC 2019-04-28 11:16:34
Программа кодирования : mkvmerge v8.3.0 ('Over the Horizon') 64bit
Библиотека кодирования : libebml v1.3.1 + libmatroska v1.4.2

Видео
Идентификатор : 1
Формат : AVC
Формат/Информация : Advanced Video Codec
Профиль формата : High@L4.1
Параметр CABAC формата : Да
Параметр RefFrames формата : 4 кадра
Идентификатор кодека : V_MPEG4/ISO/AVC
Продолжительность : 1 ч. 37 м.
Вид битрейта : Переменный
Битрейт : 6518 Кбит/сек
Максимальный битрейт : 7500 Кбит/сек
Ширина : 1280 пикселей
Высота : 720 пикселей
Соотношение сторон : 16:9
Режим частоты кадров : Постоянный
Частота кадров : 23,976 (24000/1001) кадра/сек
Стандарт вещания : Component
Цветовое пространство : YUV
Субдискретизация насыщенности : 4:2:0
Битовая глубина : 8 бит
Тип развёртки : Прогрессивная
Бит/(Пиксели*Кадры) : 0.289
Размер потока : 4,33 Гбайт (92%)
Default : Да
Forced : Нет
Цветовой диапазон : Limited
Основные цвета : BT.709
Характеристики трансфера : BT.709
Коэффициенты матрицы : BT.709

Аудио
Идентификатор : 2
Формат : AC-3
Формат/Информация : Audio Coding 3
Расширение режима : CM (complete main)
Параметр Endianness формата : Big
Идентификатор кодека : A_AC3
Продолжительность : 1 ч. 37 м.
Вид битрейта : Постоянный
Битрейт : 448 Кбит/сек
Каналы : 2 канала
Расположение каналов : Front: L R
Частота : 48,0 КГц
Частота кадров : 31,250 кадров/сек (1536 spf)
Метод сжатия : С потерями
Размер потока : 312 Мбайт (6%)
Default : Да
Forced : Нет

pb.wtf



Скачать Дзюнпэй, подумай ещё раз через торрент https://d.radikal.ru/d28/1904/af/4272a08ce735.jpg Скачать фильм Дзюнпэй, подумай ещё раз через торрент бесплантно в хорошем качестве Описание: Дзюнпэю 21 год, и он - якудза низшего звена. Однажды босс дает парню задание убить высокопоставленного якудза из конкурирующей ... 10 10 4
Торрент: Зарегистрирован [2019-04-28 19:24] · скачан: 10 раз
Статус: # сомнительно
Размер: 4.73 GB
Как cкачать? Как скачать Дзюнпэй, подумай ещё раз через торрент | qTorrent

% Раздел Тема Автор DL S | L
T Фильмы (мультфильмы) cо спонсором показа (Новинки AVI/MKV) [ 1.37 GB ] Дзюнпэй подумай ещё раз / Junpei kangaenaose [2018 HDRip] MVO ["Синема УС"] bober100 Скачать
1 | 0

28-11-2019 20:33  

Отключить всю рекламу на сайте

    Дорогой пользователь! Огромная просьба, поблагодарите релизера, оцените раздачу и оставьте свои комментарий, если Вы скачали Дзюнпэй, подумай ещё раз через торрент бесплатно! Внесите свою лепту в развитие PiratBit!
    Комментировать посты могут только пользователи прошедшие не сложную регистрацию
    Показать сообщения:    

    Дзюнпэй, подумай ещё раз через торрент
    Скачать бесплатно Дзюнпэй, подумай ещё раз
    Дзюнпэй, подумай ещё раз скачать торрент
    Дзюнпэй, подумай ещё раз смотреть онлайн
    Cкачать фильм Дзюнпэй, подумай ещё раз бесплатно
    Дзюнпэй, подумай ещё раз скачать торрент в хорошем качестве
    Дзюнпэй, подумай ещё раз смотреть онлайн бесплатно в хорошем качестве


    Вы не можете начинать темы
    Вы не можете отвечать на сообщения
    Вы не можете редактировать свои сообщения
    Вы не можете удалять свои сообщения
    Вы не можете голосовать в опросах
    Вы не можете прикреплять файлы к сообщениям
    Вы можете скачивать файлы