Ссылка на приватное зеркало всего за 1$. Внимание количество ограничено!!!

OK

1+1

iTunes

мы

OK

1

WEB-DLRip

Джокер

Пифагор

Ведьмак / The Witcher сериал

iTunes

ПШазам

ОК

Оно 2

iTunes

30
pack

Вам бонус

ВАЖНО

!!Акция!!

Alien_RageХит недели

RePack

Resident Evil 21

ИГРА 18+

pack

RePack

jed

RePack

fifa19

RePack

Assassins Creed: Odyssey

RePack

NEED FOR SPEED™ PAYBACK

4 сезон

9 сезон

Бесстыжие 9 сезон

Все сериалы

все сериалы на PB.wtf

RePack

FAR CRY 5
  

Точка контроля / Locus of Control (Шон Клэнси) [2018, Ужасы, триллер, драма, комедия, детектив, WEB-DL 720p] MVO ["Синема УС"] pb.wtf

Точка контроля через торрент pb.wtf

Размер: 3.11 GB | Добавлен: 8 мес. назад | Торрент скачан:7 раз
Скачать  

28-04-2019 19:59 Точка контроля Скачать торрент  

Точка контроля / Locus of ControlГод выпуска: 2018
Страна: Ирландия
Жанр: Ужасы, триллер, драма, комедия, детектив
Продолжительность: 01:20:36
Перевод: Любительский (многоголосый) | "Синема УС"
Субтитры: отсутствуют

Режиссер: Шон Клэнси

rating

В ролях: Джон Мортон, Симус О'Рурк, Питер МакГанн, Кьяран МакКоли, Эдди Мерфи, Гас МакДона, Аойф Спратт, Мюирэнн Тойбин, Стивен Колфер, Памела Девани

Описание: Устав совершать одни и те же ошибки, Эндрю Иган начинает работать преподавателем, чтобы поддержать свою карьеру стендап-комика. По мере того как все более встревоженный Эндрю знакомится со сферой юмора и её участниками, он подозревает, что один из учащихся пытается добиться его увольнения и что предыдущий преподаватель ушёл не по собственному желанию. Жизнь Эндрю разваливается на глазах, его уроки остаются без внимания, а вскоре он становится частью масштабной космической шутки.

Качество: WEB-DL 720p
Формат: MKV

Видео: h.264,5 141 Кбит/с, 1280x528
Аудио: Русский, (AC3, 2 ch, 384 Кбит/с)
скриншот  скриншот  скриншот  

Общее
Уникальный идентификатор : 181873262898944629809234923356355755500 (0x88D3842CE536DC599663DD833F2AFDEC)
Полное имя : D:\Locus.of.Control.2O18.P.WEB-DL.72Op.mkv
Формат : Matroska
Версия формата : Version 2
Размер файла : 3,11 Гбайт
Продолжительность : 1 ч. 20 м.
Режим общего битрейта : Переменный
Общий поток : 5526 Кбит/сек
Дата кодирования : UTC 2019-04-28 11:10:59
Программа кодирования : mkvmerge v8.3.0 ('Over the Horizon') 64bit
Библиотека кодирования : libebml v1.3.1 + libmatroska v1.4.2

Видео
Идентификатор : 1
Формат : AVC
Формат/Информация : Advanced Video Codec
Профиль формата : High@L4.1
Параметр CABAC формата : Да
Параметр RefFrames формата : 4 кадра
Идентификатор кодека : V_MPEG4/ISO/AVC
Продолжительность : 1 ч. 20 м.
Вид битрейта : Переменный
Битрейт : 5141 Кбит/сек
Максимальный битрейт : 6000 Кбит/сек
Ширина : 1280 пикселей
Высота : 528 пикселей
Соотношение сторон : 2,40:1
Режим частоты кадров : Постоянный
Частота кадров : 23,976 (24000/1001) кадра/сек
Стандарт вещания : Component
Цветовое пространство : YUV
Субдискретизация насыщенности : 4:2:0
Битовая глубина : 8 бит
Тип развёртки : Прогрессивная
Бит/(Пиксели*Кадры) : 0.311
Размер потока : 2,83 Гбайт (91%)
Default : Да
Forced : Нет
Цветовой диапазон : Limited
Основные цвета : BT.709
Характеристики трансфера : BT.709
Коэффициенты матрицы : BT.709

Аудио
Идентификатор : 2
Формат : AC-3
Формат/Информация : Audio Coding 3
Расширение режима : CM (complete main)
Параметр Endianness формата : Big
Идентификатор кодека : A_AC3
Продолжительность : 1 ч. 20 м.
Вид битрейта : Постоянный
Битрейт : 384 Кбит/сек
Каналы : 2 канала
Расположение каналов : Front: L R
Частота : 48,0 КГц
Частота кадров : 31,250 кадров/сек (1536 spf)
Метод сжатия : С потерями
Размер потока : 221 Мбайт (7%)
Default : Да
Forced : Нет

pb.wtf



Скачать Точка контроля через торрент https://a.radikal.ru/a02/1904/0d/a1b066353d57.jpg Скачать фильм Точка контроля через торрент бесплантно в хорошем качестве Описание: Устав совершать одни и те же ошибки, Эндрю Иган начинает работать преподавателем, чтобы поддержать свою карьеру стендап-комика. ... 10 10 2
Торрент: Зарегистрирован [2019-04-28 19:59] · скачан: 7 раз
Статус: T временная
Размер: 3.11 GB
Как cкачать? Как скачать Точка контроля через торрент | qTorrent

% Раздел Тема Автор DL S | L
T Фильмы (мультфильмы) cо спонсором показа (Новинки AVI/MKV) [ 1.31 GB ] Точка контроля / Locus of Control [2018 WEB-DLRip] MVO ["Синема УС"] bober100 Скачать
1 | 0

28-11-2019 20:33  

Отключить всю рекламу на сайте

    Дорогой пользователь! Огромная просьба, поблагодарите релизера, оцените раздачу и оставьте свои комментарий, если Вы скачали Точка контроля через торрент бесплатно! Внесите свою лепту в развитие PiratBit!
    Комментировать посты могут только пользователи прошедшие не сложную регистрацию
    Показать сообщения:    

    Точка контроля через торрент
    Скачать бесплатно Точка контроля
    Точка контроля скачать торрент
    Точка контроля смотреть онлайн
    Cкачать фильм Точка контроля бесплатно
    Точка контроля скачать торрент в хорошем качестве
    Точка контроля смотреть онлайн бесплатно в хорошем качестве


    Вы не можете начинать темы
    Вы не можете отвечать на сообщения
    Вы не можете редактировать свои сообщения
    Вы не можете удалять свои сообщения
    Вы не можете голосовать в опросах
    Вы не можете прикреплять файлы к сообщениям
    Вы можете скачивать файлы