Ссылка на приватное зеркало нашего сайта всего за 1$. Внимание количество ограничено!!!

2 сезон

iTunes

iTunes

1

iTunes

iTunes

iTunes

WEBRip

iTunes

30
pack

Новость дня

ВАЖНО

!!Акция!!

Alien_RageХит недели

RePack

Horizon Zero Dawn

ИГРА 18+

pack

RePack

jed

!!Акция!!

Alien_Rage

RePack

fifa19

RePack

Assassins Creed: Odyssey

RePack

NEED FOR SPEED™ PAYBACK

4 сезон

9 сезон

Бесстыжие 9 сезон

Все сериалы

все сериалы на PB.wtf

RePack

FAR CRY 5
  

Скрытый человек / Xie bu ya zheng / Hidden Man (Цзян Вэнь) [2018, боевик, история, криминал, BDRip 720p] MVO ["Синема УС"] pb.wtf

Скрытый человек через торрент pb.wtf

Размер: 6.76 GB | Добавлен: 1 год 4 мес. назад | Торрент скачан:37 раз
Скачать  

28-04-2019 20:23 Скрытый человек Скачать торрент  

Скрытый человек / Xie bu ya zheng / Hidden Man Год выпуска: 2018
Страна: Китай
Жанр: боевик, история, криминал
Продолжительность: 02:15:07
Перевод: Любительский (многоголосый) | "Синема УС"
Субтитры: отсутствуют

Режиссер: Цзян Вэнь

rating

В ролях:

Эдди Пэн, Ляо Фань, Цзян Вэнь, Чжоу Юнь, Сюй Цин, Кэнъя Савада, Энди Френд, Ши Хан, Ли Мэн, Дзюнъити Кадзиока

Описание:

Пекин, 1922 год. Отец 13-летнего Ли Тяньжаня, влиятельный человек, отказывается выращивать опиум для японцев. В результате всю его семью убивают, а самого парня спасает американский врач. Через 15 лет упорных тренировок Тяньжань возвращается на родину, движимый справедливым желанием отомстить.

Качество: BDRip 720p
Формат: MKV

Видео: h.264, 6 713 Кбит/с, 1280x536
Аудио#1: Русский (AC3, 2 ch, 448 Кбит/с)
скриншот  скриншот  скриншот  

Общее
Уникальный идентификатор : 242877595989517934686381855640582875917 (0xB6B88603AEE03915B20FB20A8B23EB0D)
Полное имя : D:\Hidden.Man.2018.P.BDRip.72Op.mkv
Формат : Matroska
Версия формата : Version 2
Размер файла : 6,76 Гбайт
Продолжительность : 2 ч. 15 м.
Режим общего битрейта : Переменный
Общий поток : 7163 Кбит/сек
Дата кодирования : UTC 2019-04-22 14:55:17
Программа кодирования : mkvmerge v8.3.0 ('Over the Horizon') 64bit
Библиотека кодирования : libebml v1.3.1 + libmatroska v1.4.2

Видео
Идентификатор : 1
Формат : AVC
Формат/Информация : Advanced Video Codec
Профиль формата : High@L4.1
Параметр CABAC формата : Да
Параметр RefFrames формата : 4 кадра
Идентификатор кодека : V_MPEG4/ISO/AVC
Продолжительность : 2 ч. 15 м.
Вид битрейта : Переменный
Битрейт : 6713 Кбит/сек
Максимальный битрейт : 7500 Кбит/сек
Ширина : 1280 пикселей
Высота : 536 пикселей
Соотношение сторон : 2,40:1
Режим частоты кадров : Постоянный
Частота кадров : 23,976 (24000/1001) кадра/сек
Стандарт вещания : Component
Цветовое пространство : YUV
Субдискретизация насыщенности : 4:2:0
Битовая глубина : 8 бит
Тип развёртки : Прогрессивная
Бит/(Пиксели*Кадры) : 0.400
Размер потока : 6,20 Гбайт (92%)
Default : Да
Forced : Нет
Цветовой диапазон : Limited
Основные цвета : BT.709
Характеристики трансфера : BT.709
Коэффициенты матрицы : BT.709

Аудио
Идентификатор : 2
Формат : AC-3
Формат/Информация : Audio Coding 3
Расширение режима : CM (complete main)
Параметр Endianness формата : Big
Идентификатор кодека : A_AC3
Продолжительность : 2 ч. 15 м.
Вид битрейта : Постоянный
Битрейт : 448 Кбит/сек
Каналы : 2 канала
Расположение каналов : Front: L R
Частота : 48,0 КГц
Частота кадров : 31,250 кадров/сек (1536 spf)
Метод сжатия : С потерями
Размер потока : 433 Мбайт (6%)
Default : Да
Forced : Нет

pb.wtf



Скачать Скрытый человек через торрент https://b.radikal.ru/b19/1904/4b/1ec2d931c24f.jpg Скачать фильм Скрытый человек через торрент бесплантно в хорошем качестве Описание: Пекин, 1922 год. Отец 13-летнего Ли Тяньжаня, влиятельный человек, отказывается выращивать опиум для японцев. В результате всю ... 10 10 3
Торрент: Зарегистрирован [2019-04-28 20:23] · скачан: 37 раз
Статус: # сомнительно
Размер: 6.76 GB
Как cкачать? Как скачать Скрытый человек через торрент | qTorrent

% Раздел Тема Автор DL S | L
T Фильмы (мультфильмы) cо спонсором показа (Новинки AVI/MKV) [ 2.05 GB ] Скрытый человек / Xie bu ya zheng / Hidden Man [2018 история HDRip] MVO ["Синема УС"] bober100 Скачать
1 | 0
T Фильмы (мультфильмы) cо спонсором показа (Новинки AVI/MKV) [ 1.37 GB ] Скрытый человек / Xie bu ya zheng / Hidden Man [2018 история HDRip] MVO ["Синема УС"] bober100 Скачать
1 | 0

28-11-2019 20:33  

Отключить всю рекламу на сайте

    Дорогой пользователь! Огромная просьба, поблагодарите релизера, оцените раздачу и оставьте свои комментарий, если Вы скачали Скрытый человек через торрент бесплатно! Внесите свою лепту в развитие PiratBit!
    Комментировать посты могут только пользователи прошедшие не сложную регистрацию
    Показать сообщения:    

    Скрытый человек через торрент
    Скачать бесплатно Скрытый человек
    Скрытый человек скачать торрент
    Скрытый человек смотреть онлайн
    Cкачать фильм Скрытый человек бесплатно
    Скрытый человек скачать торрент в хорошем качестве
    Скрытый человек смотреть онлайн бесплатно в хорошем качестве


    Вы не можете начинать темы
    Вы не можете отвечать на сообщения
    Вы не можете редактировать свои сообщения
    Вы не можете удалять свои сообщения
    Вы не можете голосовать в опросах
    Вы не можете прикреплять файлы к сообщениям
    Вы можете скачивать файлы