MEGA SALE -50% FORZA HORIZON 4 ULTIMATE+ВСЕ DLC+ОНЛАЙН всего за 599р. 299 руб. (супер цена). Внимание количество ограничено!!!

iTunes

1+1

iTunes

мы

iTunes

1

iTunes

Чернобыль

iTunes

Ральф против интернета

Лицензия

ПШазам

Лицензия

Игра престолов

Лицензия

30
pack

ВАЖНО

!!Акция!!

Alien_RageХит недели

RePack

Resident Evil 21

ИГРА 18+

pack

RePack

Metro:Exodus

!!Акция!!

Alien_Rage

RePack

fifa19

RePack

Assassins Creed: Odyssey

RePack

NEED FOR SPEED™ PAYBACK

3 сезон

9 сезон

Бесстыжие 9 сезон

Все сериалы

все сериалы на PB.wtf

RePack

FAR CRY 5
Ребята, катастрофически не хватает 7730р. для оплаты серверов за АВГУСТ (всвязи с блокировками трафик упал в 3 раза), 1-2р., выручайте.
  

ЛЕГО Фильм 2 / The Lego Movie 2: The Second Part (Майк Митчелл) [2019, мультфильм, мюзикл, фэнтези, UHD BDRip 2160p] [SDR] DUB (rus, ukr) [Лицензия] pb.wtf

ЛЕГО Фильм 2 через торрент pb.wtf

Размер: 13.49 GB | Добавлен: 2 мес. 27 д. назад | Торрент скачан:10 раз
Скачать  

29-04-2019 06:03 ЛЕГО Фильм 2 Скачать торрент  

ЛЕГО Фильм 2 / The Lego Movie 2: The Second Part«Они придут с миром»

Год выпуска: 2019
Страна: Дания, Норвегия, Австралия, США
Жанр: мультфильм, мюзикл, фэнтези, боевик, комедия, приключения, семейный
Продолжительность: 01:47:09
Перевод: Дублированный | Лицензия
Субтитры: Русские (Forced, full), украинские (Forced), английские
Режиссер: Майк Митчелл
В ролях:

Крис Пратт (Emmet Brickowski / Rex Dangervest, озвучка), Элизабет Бэнкс (Wyldstyle / Lucy, озвучка), Уилл Арнетт (Batman, озвучка), Тиффани Хэддиш (Queen Watevra Wa'Nabi, озвучка), Стефани Беатриз (General Mayhem / Sweet Mayhem, озвучка), Элисон Бри (Unikitty / Ultrakatty, озвучка), Ник Офферман (MetalBeard, озвучка), Чарли Дэй (Benny, озвучка), Майя Рудольф (Mom), Уилл Феррелл (President Business / Dad), Джэдон Сэнд (Finn, озвучка), Бруклин Принс (Bianca, озвучка)
Описание:
Прошло пять лет с тех пор, как все было прекрасно, и теперь жители пластмассового мира столкнулись с новой невероятной угрозой - вторженцами LEGO DUPLO
Рейтинг:

MPAA: PG - Рекомендуется присутствие родителей
Качество: UHD BDRip 2160p | SDR
Формат: MKV
Видео: HEVC, 13.2 Мбит/с, 3840x1606, 23.976 кадр/с, 10 бит
Аудио: 48 kHz, AC3, 5.1, 448 Kbps | Лицензия | RUS |
Аудио: 48 kHz, AC3, 2.0, 160 Kbps | iTunes | UKR |
Аудио: 48 kHz, TrueHD, 7.1, 3526 Kbps | Оригинал | ENG |
Аудио: 48 kHz, AC3, 5.1, 640 Kbps | Оригинал | ENG |
Навигация по главам: есть

Общее
Уникальный идентификатор : 230814465031136323885307249823649317215 (0xADA53FBD293ABAF982D25C17A47F415F)
Полное имя : D:\Мои раздачи\Передел\The.Lego.Movie.2.The.Second.Part.2019.2160p.UHD.BDRip.x265.10bit.SDR.HEVC.Master5.mkv
Формат : Matroska
Версия формата : Version 4 / Version 2
Размер файла : 13,5 Гбайт
Продолжительность : 1 ч. 47 м.
Режим общего битрейта : Переменный
Общий поток : 18,0 Мбит/сек
Название фильма : The.Lego.Movie.2.The.Second.Part.2019.2160p.UHD.BDRip.x265.10bit.SDR.HEVC.Master5
Дата кодирования : UTC 2019-06-18 08:15:38
Программа кодирования : mkvmerge v7.9.0 ('Birds') 64bit
Библиотека кодирования : libebml v1.3.1 + libmatroska v1.4.2
Обложка : Yes
Attachments : cover_land.jpg / small_cover.jpg / small_cover_land.jpg / cover.jpg

Видео
Идентификатор : 1
Формат : HEVC
Формат/Информация : High Efficiency Video Coding
Профиль формата : Main 10@L5.1@High
Идентификатор кодека : V_MPEGH/ISO/HEVC
Продолжительность : 1 ч. 47 м.
Битрейт : 13,2 Мбит/сек
Ширина : 3840 пикселей
Высота : 1606 пикселей
Соотношение сторон : 2,40:1
Режим частоты кадров : Постоянный
Частота кадров : 23,976 (24000/1001) кадра/сек
Цветовое пространство : YUV
Субдискретизация насыщенности : 4:2:0
Битовая глубина : 10 бит
Бит/(Пиксели*Кадры) : 0.089
Размер потока : 9,86 Гбайт (73%)
Заголовок : The.Lego.Movie.2.The.Second.Part.2019.2160p.UHD.BDRip.x265.10bit.SDR.HEVC.Master5
Библиотека кодирования : x265 3.0+1-ed72af837053:[Windows][GCC 8.2.0][64 bit] 10bit
Настройки программы : cpuid=1111039 / frame-threads=16 / numa-pools=16,16 / wpp / no-pmode / no-pme / no-psnr / no-ssim / log-level=2 / input-csp=1 / input-res=3840x1606 / interlace=0 / total-frames=154153 / level-idc=51 / high-tier=1 / uhd-bd=0 / ref=3 / no-allow-non-conformance / repeat-headers / annexb / aud / hrd / info / hash=0 / no-temporal-layers / no-open-gop / min-keyint=1 / keyint=24 / gop-lookahead=0 / bframes=6 / b-adapt=2 / b-pyramid / bframe-bias=0 / rc-lookahead=25 / lookahead-slices=4 / scenecut=40 / radl=0 / no-splice / no-intra-refresh / ctu=64 / min-cu-size=8 / no-rect / no-amp / max-tu-size=32 / tu-inter-depth=1 / tu-intra-depth=1 / limit-tu=0 / rdoq-level=0 / dynamic-rd=0.00 / no-ssim-rd / signhide / no-tskip / nr-intra=0 / nr-inter=0 / no-constrained-intra / strong-intra-smoothing / max-merge=2 / limit-refs=3 / no-limit-modes / me=1 / subme=2 / merange=57 / temporal-mvp / weightp / no-weightb / no-analyze-src-pics / deblock=1:1 / no-sao / no-sao-non-deblock / rd=3 / no-early-skip / rskip / no-fast-intra / no-tskip-fast / no-cu-lossless / no-b-intra / no-splitrd-skip / rdpenalty=0 / psy-rd=0.40 / psy-rdoq=0.00 / no-rd-refine / no-lossless / cbqpoffs=0 / crqpoffs=0 / rc=crf / crf=14.0 / qcomp=0.60 / qpstep=4 / stats-write=0 / stats-read=0 / vbv-maxrate=160000 / vbv-bufsize=160000 / vbv-init=0.9 / crf-max=0.0 / crf-min=0.0 / ipratio=1.40 / pbratio=1.30 / aq-mode=1 / aq-strength=0.40 / cutree / zone-count=0 / no-strict-cbr / qg-size=32 / no-rc-grain / qpmax=69 / qpmin=0 / no-const-vbv / sar=1 / overscan=0 / videoformat=5 / range=0 / colorprim=2 / transfer=2 / colormatrix=2 / chromaloc=0 / display-window=0 / max-cll=0,0 / min-luma=0 / max-luma=1023 / log2-max-poc-lsb=8 / vui-timing-info / vui-hrd-info / slices=1 / opt-qp-pps / opt-ref-list-length-pps / no-multi-pass-opt-rps / scenecut-bias=0.05 / no-opt-cu-delta-qp / no-aq-motion / no-hdr / no-hdr-opt / no-dhdr10-opt / no-idr-recovery-sei / analysis-reuse-level=5 / scale-factor=0 / refine-intra=0 / refine-inter=0 / refine-mv=0 / refine-ctu-distortion=0 / no-limit-sao / ctu-info=0 / no-lowpass-dct / refine-analysis-type=0 / copy-pic=1 / max-ausize-factor=1.0 / no-dynamic-refine / no-single-sei / no-hevc-aq / qp-adaptation-range=1.00
Default : Да
Forced : Нет

Аудио #1
Идентификатор : 2
Формат : AC-3
Формат/Информация : Audio Coding 3
Идентификатор кодека : A_AC3
Продолжительность : 1 ч. 47 м.
Вид битрейта : Постоянный
Битрейт : 448 Кбит/сек
Каналы : 6 каналов
Расположение каналов : Front: L C R, Side: L R, LFE
Частота : 48,0 КГц
Частота кадров : 31,250 кадров/сек (1536 SPF)
Битовая глубина : 16 бит
Метод сжатия : С потерями
Размер потока : 343 Мбайт (2%)
Заголовок : DUB | Лицензия
Язык : Russian
ServiceKind/String : Complete Main
Default : Да
Forced : Нет

Аудио #2
Идентификатор : 3
Формат : AC-3
Формат/Информация : Audio Coding 3
Идентификатор кодека : A_AC3
Продолжительность : 1 ч. 47 м.
Вид битрейта : Постоянный
Битрейт : 160 Кбит/сек
Каналы : 2 канала
Расположение каналов : Front: L R
Частота : 48,0 КГц
Частота кадров : 31,250 кадров/сек (1536 SPF)
Битовая глубина : 16 бит
Метод сжатия : С потерями
Размер потока : 123 Мбайт (1%)
Заголовок : iTunes
Язык : Ukrainian
ServiceKind/String : Complete Main
Default : Нет
Forced : Нет

Аудио #3
Идентификатор : 4
Формат : TrueHD
Профиль формата : TrueHD+Atmos / TrueHD
Идентификатор кодека : A_TRUEHD
Продолжительность : 1 ч. 47 м.
Вид битрейта : Переменный
Битрейт : 3526 Кбит/сек
Максимальный битрейт : 5280 Кбит/сек
Каналы : Object Based / 8 каналов
Расположение каналов : Object Based / Front: L C R, Side: L R, Back: L R, LFE
Частота : / 48,0 КГц
Частота кадров : 1200,000 кадров/сек (40 SPF)
Метод сжатия : Без потерь
Размер потока : 2,64 Гбайт (20%)
Заголовок : Original
Язык : English
Default : Нет
Forced : Нет

Аудио #4
Идентификатор : 5
Формат : AC-3
Формат/Информация : Audio Coding 3
Идентификатор кодека : A_AC3
Продолжительность : 1 ч. 47 м.
Вид битрейта : Постоянный
Битрейт : 640 Кбит/сек
Каналы : 6 каналов
Расположение каналов : Front: L C R, Side: L R, LFE
Частота : 48,0 КГц
Частота кадров : 31,250 кадров/сек (1536 SPF)
Битовая глубина : 16 бит
Метод сжатия : С потерями
Размер потока : 491 Мбайт (4%)
Язык : English
ServiceKind/String : Complete Main
Default : Нет
Forced : Нет

Текст #1
Идентификатор : 6
Формат : UTF-8
Идентификатор кодека : S_TEXT/UTF8
Идентификатор кодека/Информация : UTF-8 Plain Text
Продолжительность : 1 ч. 45 м.
Битрейт : 5 бит/сек
ElementCount : 41
Размер потока : 3,90 Кбайт (0%)
Заголовок : Forced
Язык : Russian
Default : Да
Forced : Да

Текст #2
Идентификатор : 7
Формат : UTF-8
Идентификатор кодека : S_TEXT/UTF8
Идентификатор кодека/Информация : UTF-8 Plain Text
Продолжительность : 1 ч. 46 м.
Битрейт : 128 бит/сек
ElementCount : 1905
Размер потока : 100 Кбайт (0%)
Заголовок : Full
Язык : Russian
Default : Нет
Forced : Нет

Текст #3
Идентификатор : 8
Формат : UTF-8
Идентификатор кодека : S_TEXT/UTF8
Идентификатор кодека/Информация : UTF-8 Plain Text
Продолжительность : 1 ч. 32 м.
Битрейт : 5 бит/сек
ElementCount : 40
Размер потока : 3,73 Кбайт (0%)
Заголовок : Forced
Язык : Ukrainian
Default : Нет
Forced : Нет

Текст #4
Идентификатор : 9
Формат : UTF-8
Идентификатор кодека : S_TEXT/UTF8
Идентификатор кодека/Информация : UTF-8 Plain Text
Продолжительность : 1 ч. 46 м.
Битрейт : 90 бит/сек
ElementCount : 2152
Размер потока : 70,2 Кбайт (0%)
Заголовок : Full
Язык : English
Default : Нет
Forced : Нет

Меню
00:00:00.000 : en:Chapter 01
00:04:15.881 : en:Chapter 02
00:12:35.046 : en:Chapter 03
00:15:09.951 : en:Chapter 04
00:21:57.733 : en:Chapter 05
00:29:50.330 : en:Chapter 06
00:36:22.680 : en:Chapter 07
00:44:47.977 : en:Chapter 08
00:50:50.506 : en:Chapter 09
00:57:05.255 : en:Chapter 10
01:01:07.163 : en:Chapter 11
01:09:48.351 : en:Chapter 12
01:17:31.939 : en:Chapter 13
01:21:58.122 : en:Chapter 14
01:26:49.538 : en:Chapter 15
01:34:06.266 : en:Chapter 16
01:38:30.571 : en:Chapter 17
pb.wtf



Скачать ЛЕГО Фильм 2 через торрент https://a.radikal.ru/a34/1904/43/424b09b92cb1.jpg Скачать фильм ЛЕГО Фильм 2 через торрент бесплантно в хорошем качестве Описание: Прошло пять лет с тех пор, как все было прекрасно, и теперь жители пластмассового мира столкнулись с новой невероятной угрозой - ... 10 10 1
Торрент: Зарегистрирован [2019-06-18 10:25] · скачан: 10 раз
Статус: √ проверено
Размер: 13.49 GB
Как cкачать? Как скачать ЛЕГО Фильм 2 через торрент | qTorrent

% Раздел Тема Автор DL S | L
Мультфильмы (48-60 fps) [ 10.62 GB ] ЛЕГО Фильм 2 / The Lego Movie 2: The Second Part [2019 мультфильм мюзикл BDRip 1080p 60 fps] DUB sheker187 Скачать
1 | 0
Зарубежные Мультфильмы (BDRip 1080p, 720p, Blu-ray, BD-Remux) [ 5.63 GB ] ЛЕГО Фильм-2 / The Lego Movie 2: The Second Part [2019 мультфильм мюзикл BDRip 720p] DUB [] bober100 Скачать
6 | 0
Ultra HD (UHD: 2K, 4K, 8K) [ 44.55 GB ] ЛЕГО Фильм 2 / The Lego Movie 2: The Second Part [2019 мультфильм мюзикл UHD BDRemux 2160p] DUB [] sheker187 Скачать
1 | 0
Зарубежные Мультфильмы (BDRip 1080p, 720p, Blu-ray, BD-Remux) [ 10.27 GB ] ЛЕГО Фильм-2 / The Lego Movie 2: The Second Part [2019 мультфильм мюзикл BDRip 1080p] DUB [] bober100 Скачать
3 | 0
3D Мультфильмы [ 6.95 GB ] ЛЕГО Фильм-2 3Д / The Lego Movie 2: The Second Part 3D [2019 мультфильм мюзикл BDRip 1080p] [Half OverUnder] DUB [] bober100 Скачать
2 | 0
Зарубежные Мультфильмы (BDRip 1080p, 720p, Blu-ray, BD-Remux) [ 44.97 GB ] ЛЕГО Фильм-2 / The Lego Movie 2: The Second Part [2019 мультфильм мюзикл Blu-ray EUR 1080p] DUB [] bober100 Скачать
1 | 0
Иностранные мультфильмы [ 1.67 GB ] ЛЕГО Фильм-2 / The Lego Movie 2: The Second Part [2019 мультфильм мюзикл BDRip-AVC] DUB [] bober100 Скачать
4 | 0


>> Регистрируемся здесь <<






Отзывы и комментарии о схеме читаем и пишем здесь: ---> Отзывы и комментарии о схеме

Новые благодарочки в телеграм довольных пользователей:
скриншот   скриншот   скриншот   скриншот   скриншот

18-06-2019 10:26 ЛЕГО Фильм 2 Скачать торрент  

Релиз обновлён - на лицензию
Желающие, скачайте заново торрент-файл.
Приятного просмотра!pb.wtf



    Дорогой пользователь! Огромная просьба, поблагодарите релизера, оцените раздачу и оставьте свои комментарий, если Вы скачали ЛЕГО Фильм 2 через торрент бесплатно! Внесите свою лепту в развитие PiratBit!
    Комментировать посты могут только пользователи прошедшие не сложную регистрацию
    Показать сообщения:    

    ЛЕГО Фильм 2 через торрент
    Скачать бесплатно ЛЕГО Фильм 2
    ЛЕГО Фильм 2 скачать торрент
    ЛЕГО Фильм 2 смотреть онлайн
    Cкачать фильм ЛЕГО Фильм 2 бесплатно
    ЛЕГО Фильм 2 скачать торрент в хорошем качестве
    ЛЕГО Фильм 2 смотреть онлайн бесплатно в хорошем качестве


    Вы не можете начинать темы
    Вы не можете отвечать на сообщения
    Вы не можете редактировать свои сообщения
    Вы не можете удалять свои сообщения
    Вы не можете голосовать в опросах
    Вы не можете прикреплять файлы к сообщениям
    Вы можете скачивать файлы