новый адрес
Мега распродажа FORZA HORIZON 4 ULTIMATE+ВСЕ DLC+ОНЛАЙН всего за 499р. 349 руб. (супер цена). Внимание количество ограничено!!!

iTunes

1+1

iTunes

мы

iTunes

1

iTunes

Чернобыль

iTunes

Ральф против интернета

Лицензия

ПШазам

Лицензия

Оно 2

Лицензия

30
pack

ВАЖНО

!!Акция!!

Alien_RageХит недели

RePack

Resident Evil 21

ИГРА 18+

pack

RePack

Metro:Exodus

!!Акция!!

Alien_Rage

RePack

fifa19

RePack

Assassins Creed: Odyssey

RePack

NEED FOR SPEED™ PAYBACK

3 сезон

9 сезон

Бесстыжие 9 сезон

Все сериалы

все сериалы на PB.wtf

RePack

FAR CRY 5
Ребята, катастрофически не хватает 1900р. для оплаты серверов за Октябрь (всвязи с блокировками трафик упал в 3 раза), 1-2р., выручайте.
  

Кюхля (Александр Белинский) [1963, СССР, драма, биография, история, SATRip от AVP Studio] pb.wtf

Кюхля через торрент pb.wtf

Раздают: 1 [ 0 KB/s ]
Размер: 1.09 GB | Добавлен: 6 мес. назад | Торрент скачан:4 раза
Скачать  

29-04-2019 08:10 Кюхля Скачать торрент  

Кюхля
Страна: СССР
Производство: Ленинградское телевидение

Жанр: драма, биография, история
Год выпуска: 1963
Продолжительность: 01:35:02

Перевод: Не требуется
Cубтитры: нет
Оригинальная аудиодорожка: русский

Режиссер: Александр Белинский

В ролях:
Сергей Юрский, Дмитрий Барков, Владимир Рецептер, Олег Басилашвили, Антонина Шуранова, Анатолий Гаричев, Игорь Дмитриев, Николай Мартон...
Об актёрах подробней

Описание:
По одноименному роману Юрия Тынянова. В центре телеспектакля - образ декабриста Вильгельма Карловича Кюхельбекера.
"Я хочу еще и еще раз напомнить, что спектакль этот игрался "вживую", так как видеозаписи еще не было, что он имел всего пять трактовых репетиций с камерой,что за полтора часа действия Сергей Юрский пять раз переодевался и три раза полностью перегримировывался, что актеры бесшумно переходили с места на место, а мест действия было более сорока, что операторы за время действия совершали со своими тяжелейшими камерами километровые переезды, и последнее, но самое главное, что спектакль этот игрался на первую, тогда единственную телепрограмму страны, то есть имел стомиллионную аудиторию. Какая это была ответственность! Какое это было волнение!"
А. Белинский

Исходник: DVB
Качество видео: SATRip
Формат видео: AVI

Видео: 688x512 (4:3), 23,976 кадров/сек, XviD ~ 1440 kbps avg, 0.163 bit/pixel
Аудио: 48 kHz, Dolby Digital AC3 2.0, 192 kbps

Раздача от:
Общее
Полное имя : Kyuhlya.1963.SATRip_[New-team]_by_AVP_Studio.avi
Формат : AVI
Формат/Информация : Audio Video Interleave
Размер файла : 1,09 Гбайт
Продолжительность : 1 ч. 35 м.
Общий поток : 1642 Кбит/сек
Программа кодирования : VirtualDubMod 1.5.10.3 | www.virtualdub-fr.org || (build 2550/release)
Библиотека кодирования : VirtualDubMod build 2550/release

Видео
Идентификатор : 0
Формат : MPEG-4 Visual
Профиль формата : Advanced Simple@L5
Настройки формата : BVOP1 / Custom Matrix
Параметр BVOP формата : 1
Параметр QPel формата : Нет
Параметр GMC формата : Без точки перехода
Параметр матрицы формата : Выборочная
Идентификатор кодека : XVID
Идентификатор кодека/Подсказка : XviD
Продолжительность : 1 ч. 35 м.
Битрейт : 1440 Кбит/сек
Ширина : 688 пикселей
Высота : 512 пикселей
Соотношение сторон : 4:3
Частота кадров : 25,000 кадров/сек
Цветовое пространство : YUV
Субдискретизация насыщенности : 4:2:0
Битовая глубина : 8 бит
Тип развёртки : Прогрессивная
Метод сжатия : С потерями
Бит/(Пиксели*Кадры) : 0.163
Размер потока : 979 Мбайт (88%)
Библиотека кодирования : XviD 73

Аудио
Идентификатор : 1
Формат : AC-3
Формат/Информация : Audio Coding 3
Коммерческое название : Dolby Digital
Идентификатор кодека : 2000
Продолжительность : 1 ч. 35 м.
Вид битрейта : Постоянный
Битрейт : 192 Кбит/сек
Каналы : 2 канала
ChannelLayout : L R
Частота : 48,0 КГц
Частота кадров : 31,250 кадров/сек (1536 SPF)
Битовая глубина : 16 бит
Метод сжатия : С потерями
Размер потока : 131 Мбайт (12%)
Выравнивание : Разделение по промежуткам
Продолжительность промежутка : 40 мс. (1,00 видеокадр)
Время предзагрузки промежутка : 500 мс.
pb.wtf



Скачать Кюхля через торрент http://picplus.ru/img/1904/29/a3ad6de1.png Скачать фильм Кюхля через торрент бесплантно в хорошем качестве Описание:По одноименному роману Юрия Тынянова. В центре телеспектакля - образ декабриста Вильгельма Карловича Кюхельбекера."Я хочу еще и ... 5 10 1
Торрент: Зарегистрирован [2019-04-29 08:10] · скачан: 4 раз
Статус: √ проверено
Размер: 1.09 GB
Как cкачать? Как скачать Кюхля через торрент | qTorrent

% Раздел Тема Автор DL S | L
Кино СССР [ 1.09 GB ] Кюхля [1963 СССР биография история SATRip-AVC от AVP Studio] AVP Studio Скачать
5 | 0


>> Регистрируемся здесь <<






Отзывы и комментарии о схеме читаем и пишем здесь: ---> Отзывы и комментарии о схеме

Новые благодарочки в телеграм довольных пользователей:
скриншот   скриншот   скриншот   скриншот   скриншот
    Дорогой пользователь! Огромная просьба, поблагодарите релизера, оцените раздачу и оставьте свои комментарий, если Вы скачали Кюхля через торрент бесплатно! Внесите свою лепту в развитие PiratBit!
    Комментировать посты могут только пользователи прошедшие не сложную регистрацию
    Показать сообщения:    

    Кюхля через торрент
    Скачать бесплатно Кюхля
    Кюхля скачать торрент
    Кюхля смотреть онлайн
    Cкачать фильм Кюхля бесплатно
    Кюхля скачать торрент в хорошем качестве
    Кюхля смотреть онлайн бесплатно в хорошем качестве


    Вы не можете начинать темы
    Вы не можете отвечать на сообщения
    Вы не можете редактировать свои сообщения
    Вы не можете удалять свои сообщения
    Вы не можете голосовать в опросах
    Вы не можете прикреплять файлы к сообщениям
    Вы можете скачивать файлы