Ссылка на приватное зеркало нашего сайта всего за 1$. Внимание количество ограничено!!!

2 сезон

iTunes

1 сезон

1

2 сезон

2 сезон

iTunes

1 сезон

RePack

30

Ultimate

ВАЖНО

ИГРА 18+

pack

RePack

MK11
pack

Забери бонус

RePack

jed

!!Акция!!

Alien_Rage

RePack

fifa19

RePack

Assassins Creed: Odyssey

RePack

NEED FOR SPEED™ PAYBACK

4 сезон

9 сезон

Бесстыжие 9 сезон

Все сериалы

все сериалы на PB.wtf

RePack

FAR CRY 5
  

Книга мёртвых / Necronomicon (Кристоф Ганс, Сюскэ Канэко, Брайан Юзна) [1993, ужасы, фантастика, BDRip - HEVC 1080p (10 Bit)] 2xAVO (Гаврилов, Сонькин), DVO pb.wtf

Книга мёртвых через торрент pb.wtf

Размер: 8.71 GB | Добавлен: 1 год 6 мес. назад | Торрент скачан:55 раз
Скачать  

29-04-2019 15:39 Книга мёртвых Скачать торрент  

Книга мёртвых / Necronomicon
Год выпуска: 1993

Страна: Франция, США

Жанр: Ужасы, фантастика

Продолжительность: 01:36:40

Перевод: Профессиональный (двухголосый), авторский (одноголосый)

Режиссер: Кристоф Ганс, Сюскэ Канэко, Брайан Юзна

rating

В ролях: Джеффри Комбс, Тони Азито, Хуан Фернандес, Брайан Юзна, Брюс Пэйн, Белинда Бауэр, Ричард Линч, Мария Форд, Питер Ясенский, Денис Д. Льюис

Описание: В поисках вдохновения Хауард Ф. Лавкрафт (классик литературы мистики и ужасов) отправляется в зловещее книгохранилище, где находится Некрономикон - легендарная книга мертвых. В ней писатель находит три истории: Утопленница - мрачную повесть первой любви и воскрешения; Холод - о гибельных поисках врача, жаждущего открыть секрет бессмертия; Шепот - о внеземных контактах смертельного вида. Когда же Лавкрафт пытается уйти, оказывается, что хранители Некрономикона охотно делятся секретами своей книги только за очень высокую цену.
Доп. информация: - Для французского режиссёра Кристофа Ганса это был дебют в большом кино в качестве постановщика.
- Другой режиссёр ленты, Брайан Юзна, использовал служебное положение и снялся в прологе картины в роли кэбмана.
- Японский режиссёр Сюскэ Канэко в момент съёмок совсем не разговаривал по-английски.
- В телевизионных версиях на спутниковых каналах и кабельной сети в России фильм шёл под названием «Некрономикон. Книга мёртвых».
Качество: BDRip-HEVC 1080p
Формат: MKV

Видео: HEVC, 11.9 Mb/s, 1906x1080, 10 Bit
Аудио#1: Русский, AC3, 2 ch, 192 Кбит/с - А.Гаврилов (ранний)
Аудио#2: Русский, AC3, 6 ch, 448 Кбит/с - А.Гаврилов (поздний)
Аудио#3: Русский, AC3, 2 ch, 192 Кбит/с - В.Сонькин
Аудио#4: Русский, AC3, 2 ch, 192 Кбит/с - DVO
Видео
Идентификатор : 1
Формат : HEVC
Формат/Информация : High Efficiency Video Coding
Профиль формата : Main 10@L4.1@High
Идентификатор кодека : V_MPEGH/ISO/HEVC
Продолжительность : 1 ч. 36 м.
Битрейт : 11,9 Мбит/сек
Ширина : 1906 пикселей
Высота : 1080 пикселей
Соотношение сторон : 16:9
Режим частоты кадров : Постоянный
Частота кадров : 23,976 (24000/1001) кадра/сек
Цветовое пространство : YUV
Субдискретизация насыщенности : 4:2:0
Битовая глубина : 10 бит
Бит/(Пиксели*Кадры) : 0.240
Размер потока : 8,01 Гбайт (92%)
Библиотека кодирования : x265 2.9+9-f74003e88622:[Windows][GCC 8.2.0][64 bit] 10bit
Настройки программы : cpuid=1111039 / frame-threads=5 / numa-pools=4 / wpp / no-pmode / no-pme / no-psnr / no-ssim / log-level=3 / input-csp=1 / input-res=1906x1080 / interlace=0 / total-frames=0 / level-idc=41 / high-tier=1 / uhd-bd=0 / ref=5 / allow-non-conformance / no-repeat-headers / annexb / no-aud / no-hrd / info / hash=0 / no-temporal-layers / open-gop / min-keyint=24 / keyint=240 / gop-lookahead=0 / bframes=8 / b-adapt=2 / b-pyramid / bframe-bias=0 / rc-lookahead=60 / lookahead-slices=6 / scenecut=40 / radl=0 / no-intra-refresh / ctu=64 / min-cu-size=8 / no-rect / no-amp / max-tu-size=32 / tu-inter-depth=1 / tu-intra-depth=1 / limit-tu=0 / rdoq-level=0 / dynamic-rd=0.00 / no-ssim-rd / signhide / no-tskip / nr-intra=0 / nr-inter=0 / no-constrained-intra / strong-intra-smoothing / max-merge=2 / limit-refs=3 / no-limit-modes / me=3 / subme=7 / merange=92 / temporal-mvp / weightp / weightb / no-analyze-src-pics / deblock=-3:-3 / sao / no-sao-non-deblock / rd=3 / no-early-skip / rskip / no-fast-intra / no-tskip-fast / no-cu-lossless / no-b-intra / no-splitrd-skip / rdpenalty=0 / psy-rd=2.00 / psy-rdoq=0.00 / no-rd-refine / no-lossless / cbqpoffs=0 / crqpoffs=0 / rc=crf / crf=19.0 / qcomp=0.60 / qpstep=4 / stats-write=0 / stats-read=0 / vbv-maxrate=50000 / vbv-bufsize=50000 / vbv-init=0.9 / crf-max=19.0 / crf-min=0.0 / ipratio=1.40 / pbratio=1.30 / aq-mode=1 / aq-strength=1.00 / cutree / zone-count=0 / no-strict-cbr / qg-size=32 / no-rc-grain / qpmax=69 / qpmin=0 / no-const-vbv / sar=1 / overscan=0 / videoformat=5 / range=0 / colorprim=2 / transfer=2 / colormatrix=2 / chromaloc=0 / display-window=0 / max-cll=0,0 / min-luma=0 / max-luma=1023 / log2-max-poc-lsb=8 / vui-timing-info / vui-hrd-info / slices=1 / no-opt-qp-pps / no-opt-ref-list-length-pps / no-multi-pass-opt-rps / scenecut-bias=0.05 / no-opt-cu-delta-qp / no-aq-motion / no-hdr / no-hdr-opt / no-dhdr10-opt / no-idr-recovery-sei / analysis-reuse-level=5 / scale-factor=0 / refine-intra=0 / refine-inter=0 / refine-mv=0 / no-limit-sao / ctu-info=0 / no-lowpass-dct / refine-mv-type=0 / copy-pic=1 / max-ausize-factor=1.0 / no-dynamic-refine / no-single-sei
Default : Да
Forced : Нет
Цветовой диапазон : Limited

Аудио #1
Идентификатор : 2
Формат : AC-3
Формат/Информация : Audio Coding 3
Коммерческое название : Dolby Digital
Идентификатор кодека : A_AC3
Продолжительность : 1 ч. 36 м.
Вид битрейта : Постоянный
Битрейт : 192 Кбит/сек
Каналы : 2 канала
Channel layout : L R
Частота : 48,0 КГц
Частота кадров : 31,250 кадров/сек (1536 SPF)
Битовая глубина : 16 бит
Метод сжатия : С потерями
Размер потока : 133 Мбайт (1%)
Заголовок : А.Гаврилов (ранний)
Язык : Russian
ServiceKind/String : Complete Main
Default : Да
Forced : Нет

Аудио #2
Идентификатор : 3
Формат : AC-3
Формат/Информация : Audio Coding 3
Коммерческое название : Dolby Digital
Идентификатор кодека : A_AC3
Продолжительность : 1 ч. 36 м.
Вид битрейта : Постоянный
Битрейт : 448 Кбит/сек
Каналы : 6 каналов
Channel layout : L R C LFE Ls Rs
Частота : 48,0 КГц
Частота кадров : 31,250 кадров/сек (1536 SPF)
Битовая глубина : 16 бит
Метод сжатия : С потерями
Размер потока : 310 Мбайт (3%)
Заголовок : А.Гаврилов (поздний) 5.1
Язык : Russian
ServiceKind/String : Complete Main
Default : Нет
Forced : Нет

Аудио #3
Идентификатор : 4
Формат : AC-3
Формат/Информация : Audio Coding 3
Коммерческое название : Dolby Digital
Идентификатор кодека : A_AC3
Продолжительность : 1 ч. 36 м.
Вид битрейта : Постоянный
Битрейт : 192 Кбит/сек
Каналы : 2 канала
Channel layout : L R
Частота : 48,0 КГц
Частота кадров : 31,250 кадров/сек (1536 SPF)
Битовая глубина : 16 бит
Метод сжатия : С потерями
Размер потока : 133 Мбайт (1%)
Заголовок : В.Сонькин
Язык : Russian
ServiceKind/String : Complete Main
Default : Нет
Forced : Нет

Аудио #4
Идентификатор : 5
Формат : AC-3
Формат/Информация : Audio Coding 3
Коммерческое название : Dolby Digital
Идентификатор кодека : A_AC3
Продолжительность : 1 ч. 36 м.
Вид битрейта : Постоянный
Битрейт : 192 Кбит/сек
Каналы : 2 канала
Channel layout : L R
Частота : 48,0 КГц
Частота кадров : 31,250 кадров/сек (1536 SPF)
Битовая глубина : 16 бит
Метод сжатия : С потерями
Размер потока : 133 Мбайт (1%)
Заголовок : MVO
Язык : Russian
ServiceKind/String : Complete Main
Default : Нет
Forced : Нет

Меню
00:00:00.000 : :Chapter 01
00:06:10.703 : :Chapter 02
00:13:32.144 : :Chapter 03
00:17:56.033 : :Chapter 04
00:22:44.488 : :Chapter 05
00:24:25.463 : :Chapter 06
00:33:04.315 : :Chapter 07
00:34:08.295 : :Chapter 08
00:37:27.745 : :Chapter 09
00:44:21.075 : :Chapter 10
00:53:23.992 : :Chapter 11
00:59:42.078 : :Chapter 12
01:00:12.025 : :Chapter 13
01:06:49.797 : :Chapter 14
01:11:30.618 : :Chapter 15
01:15:28.732 : :Chapter 16
01:25:28.039 : :Chapter 17
01:29:30.281 : :Chapter 18

скриншот   скриншот   скриншот   скриншот   скриншот  

Фильм БРАЙЕНА ЮЗНА (Реаниматор, Невеста реаниматора, Возвращение живых мертвецов- 3) по рассказам Х.Ф. ЛАВКРАФТА снят в лучших традициях жанра, что и позволило ему попасть в кинопрокат США, в отличие от массы подделок, выпускаемых сразу на видео.
pb.wtf



Скачать Книга мёртвых через торрент http://pic1.kartinco.top/images/12/mkmsn.jpg Скачать фильм Книга мёртвых через торрент бесплантно в хорошем качестве Описание: В поисках вдохновения Хауард Ф. Лавкрафт (классик литературы мистики и ужасов) отправляется в зловещее книгохранилище, где ... 10 10 3
Торрент: Зарегистрирован [2019-04-29 15:39] · скачан: 55 раз
Статус: √ проверено
Размер: 8.71 GB
Как cкачать? Как скачать Книга мёртвых через торрент | qTorrent

28-11-2019 20:33  

Отключить всю рекламу на сайте

29-04-2019 21:00 Книга мёртвых Скачать торрент  

Топик был перенесен из форума Фильмы с авторской озвучкой в форум Фильмы [HD 720p, 1080p] (Звук Cam, VO, DVO)


bober100pb.wtf



13-05-2019 19:19 Книга мёртвых Скачать торрент  

ого , обитель зла - первый образец pb.wtf



    Дорогой пользователь! Огромная просьба, поблагодарите релизера, оцените раздачу и оставьте свои комментарий, если Вы скачали Книга мёртвых через торрент бесплатно! Внесите свою лепту в развитие PiratBit!
    Комментировать посты могут только пользователи прошедшие не сложную регистрацию
    Показать сообщения:    

    Книга мёртвых через торрент
    Скачать бесплатно Книга мёртвых
    Книга мёртвых скачать торрент
    Книга мёртвых смотреть онлайн
    Cкачать фильм Книга мёртвых бесплатно
    Книга мёртвых скачать торрент в хорошем качестве
    Книга мёртвых смотреть онлайн бесплатно в хорошем качестве


    Вы не можете начинать темы
    Вы не можете отвечать на сообщения
    Вы не можете редактировать свои сообщения
    Вы не можете удалять свои сообщения
    Вы не можете голосовать в опросах
    Вы не можете прикреплять файлы к сообщениям
    Вы можете скачивать файлы