Ссылка на приватное зеркало всего за 1$. Внимание количество ограничено!!!

OK

1+1

iTunes

мы

OK

1

WEB-DLRip

Джокер

Пифагор

Ведьмак / The Witcher сериал

Лицензия

ПШазам

ОК

Оно 2

iTunes

30
pack

Вам бонус

ВАЖНО

!!Акция!!

Alien_RageХит недели

RePack

Resident Evil 21

ИГРА 18+

pack

RePack

jed

!!Акция!!

Alien_Rage

RePack

fifa19

RePack

Assassins Creed: Odyssey

RePack

NEED FOR SPEED™ PAYBACK

4 сезон

9 сезон

Бесстыжие 9 сезон

Все сериалы

все сериалы на PB.wtf

RePack

FAR CRY 5
  

Закатать в асфальт / Dragged Across Concrete (С. Крэйг Залер) [2018, боевик, триллер, драма, криминал, BDRip 720p] DUB [iTunes] pb.wtf

Закатать в асфальт через торрент pb.wtf

Раздают: 11 [ 33 KB/s ]
Размер: 4.25 GB | Добавлен: 8 мес. назад | Торрент скачан:1206 раз
Скачать  

29-04-2019 17:35 Закатать в асфальт Скачать торрент  

Закатать в асфальт / Dragged Across Concrete«Эти жёсткие мужские игры»

Год выпуска: 2018
Страна: Канада, США
Жанр: боевик, триллер, драма, криминал
Продолжительность: 02:38:22
Перевод: Дублированный | iTunes
Субтитры: Русские (Full), английские

Режиссер: С. Крэйг Залер

rating

В ролях:

Мэл Гибсон (Brett Ridgeman), Винс Вон (Anthony Lurasetti), Тори Киттлз (Henry Johns), Майкл Джей Уайт (Biscuit), Томас Кречман (Lorentz Vogelmann), Дженнифер Карпентер (Kelly Summer), Лори Холден (Melanie Ridgeman), Дон Джонсон (Chief Lt. Calvert), Удо Кир (Friedrich), Фред Меламед (Mr. Edmington), Джастин Уоррингтон (Cheryl), Мэттью МакКоулл (Grey Gloves)
Описание:

Старого ищейку Риджмана и безбашенного Энтони отстраняют от дел после того, как в сеть попадает видео, где напарники жестко выбивают признание из подозреваемого. Не имея других средств к существованию, экс-копы находят работу в криминальном подполье, где их главным врагом становится вышедший из тюрьмы Генри Джонс, мечтающий о мести полиции.

Качество: BDRip 720p
Формат: MKV

Видео: MPEG-4 AVC, 1280x534, 2819 Kbit/s, 23.976 fpss
Аудио#1: 48 kHz, AC3, 5.1, 384 Kbps | iTunes | RUS |
Аудио#2: 48 kHz, AC3, 5.1, 640 Kbps | Оригинал | ENG |
скриншот  скриншот  скриншот  скриншот  скриншот  

General
Unique ID : 320473135713659065155970738988658017390 (0xF118E17F026E134BF13CB154C7C1446E)
Complete name : D:Video111Dragged.Across.Concrete.2018.BDRip.720p.seleZen.mkv
Format : Matroska
Format version : Version 4
File size : 4.25 GiB
Duration : 2 h 38 min
Overall bit rate : 3 845 kb/s
Movie name : Dragged Across Concrete 2018 from селезень
Encoded date : UTC 2019-04-29 12:19:42
Writing application : mkvmerge v32.0.0 ('Astral Progressions') 64-bit
Writing library : libebml v1.3.7 + libmatroska v1.5.0

Video
ID : 1
Format : AVC
Format/Info : Advanced Video Codec
Format profile : High@L4.1
Format settings : CABAC / 12 Ref Frames
Format settings, CABAC : Yes
Format settings, Reference : 12 frames
Codec ID : V_MPEG4/ISO/AVC
Duration : 2 h 38 min
Bit rate : 2 819 kb/s
Width : 1 280 pixels
Height : 534 pixels
Display aspect ratio : 2.40:1
Frame rate mode : Constant
Frame rate : 23.976 (24000/1001) FPS
Color space : YUV
Chroma subsampling : 4:2:0
Bit depth : 8 bits
Scan type : Progressive
Bits/(Pixel*Frame) : 0.172
Stream size : 3.12 GiB (73%)
Title : MTeam
Writing library : x264 core 157 r2938 2b00a84 TnP@MTeam Mod
Encoding settings : cabac=1 / ref=12 / deblock=1:-3:-3 / analyse=0x3:0x133 / me=umh / subme=10 / psy=1 / psy_rd=1.05:0.00 / mixed_ref=1 / me_range=32 / chroma_me=1 / trellis=2 / 8x8dct=1 / cqm=0 / deadzone=21,11 / fast_pskip=0 / chroma_qp_offset=-2 / threads=12 / lookahead_threads=2 / sliced_threads=0 / nr=0 / decimate=0 / interlaced=0 / bluray_compat=0 / constrained_intra=0 / bframes=8 / b_pyramid=2 / b_adapt=2 / b_bias=0 / direct=3 / weightb=1 / open_gop=0 / weightp=2 / keyint=250 / keyint_min=24 / scenecut=40 / intra_refresh=0 / rc_lookahead=250 / rc=crf / mbtree=0 / crf=16.5 / qcomp=0.60 / qpmin=0 / qpmax=69 / qpstep=4 / vbv_maxrate=62500 / vbv_bufsize=78125 / crf_max=0.0 / nal_hrd=none / filler=0 / ip_ratio=1.30 / pb_ratio=1.20 / aq=3:0.80
Language : English
Default : Yes
Forced : No
Color range : Limited
Color primaries : BT.709
Matrix coefficients : BT.709

Audio #1
ID : 2
Format : AC-3
Format/Info : Audio Coding 3
Commercial name : Dolby Digital
Codec ID : A_AC3
Duration : 2 h 38 min
Bit rate mode : Constant
Bit rate : 384 kb/s
Channel(s) : 6 channels
Channel layout : L R C LFE Ls Rs
Sampling rate : 48.0 kHz
Frame rate : 31.250 FPS (1536 SPF)
Bit depth : 16 bits
Compression mode : Lossy
Stream size : 435 MiB (10%)
Title : iTunes
Language : Russian
Service kind : Complete Main
Default : Yes
Forced : Yes

Audio #2
ID : 3
Format : AC-3
Format/Info : Audio Coding 3
Commercial name : Dolby Digital
Codec ID : A_AC3
Duration : 2 h 38 min
Bit rate mode : Constant
Bit rate : 640 kb/s
Channel(s) : 6 channels
Channel layout : L R C LFE Ls Rs
Sampling rate : 48.0 kHz
Frame rate : 31.250 FPS (1536 SPF)
Bit depth : 16 bits
Compression mode : Lossy
Stream size : 725 MiB (17%)
Title : Original
Language : English
Service kind : Complete Main
Default : No
Forced : No

Text #1
ID : 4
Format : UTF-8
Codec ID : S_TEXT/UTF8
Codec ID/Info : UTF-8 Plain Text
Duration : 2 h 28 min
Bit rate : 71 b/s
Count of elements : 1617
Stream size : 78.3 KiB (0%)
Title : Full
Language : Russian
Default : No
Forced : No

Text #2
ID : 5
Format : UTF-8
Codec ID : S_TEXT/UTF8
Codec ID/Info : UTF-8 Plain Text
Duration : 2 h 28 min
Bit rate : 45 b/s
Count of elements : 1548
Stream size : 49.6 KiB (0%)
Title : Full
Language : English
Default : No
Forced : No

Text #3
ID : 6
Format : UTF-8
Codec ID : S_TEXT/UTF8
Codec ID/Info : UTF-8 Plain Text
Duration : 2 h 28 min
Bit rate : 46 b/s
Count of elements : 1677
Stream size : 50.4 KiB (0%)
Title : SDH
Language : English
Default : No
Forced : No

Menu
00:00:00.000 : en:Chapter 01
00:09:32.113 : en:Chapter 02
00:19:30.920 : en:Chapter 03
00:27:22.558 : en:Chapter 04
00:35:24.622 : en:Chapter 05
00:43:50.503 : en:Chapter 06
00:55:01.381 : en:Chapter 07
01:04:38.291 : en:Chapter 08
01:15:11.298 : en:Chapter 09
01:24:12.005 : en:Chapter 10
01:30:18.079 : en:Chapter 11
01:37:44.650 : en:Chapter 12
01:45:51.804 : en:Chapter 13
02:02:37.433 : en:Chapter 14
02:14:07.081 : en:Chapter 15
02:25:37.729 : en:Chapter 16

pb.wtf



Скачать Закатать в асфальт через торрент https://d.radikal.ru/d12/1904/c3/1891fecafcfb.png Скачать фильм Закатать в асфальт через торрент бесплантно в хорошем качестве Описание: Старого ищейку Риджмана и безбашенного Энтони отстраняют от дел после того, как в сеть попадает видео, где напарники жестко ... 9.2 10 26
Info! Золотая раздача, скачанное не засчитывается.
Торрент: Зарегистрирован [2019-04-29 17:35] · скачан: 1 206 раз
Статус: √ проверено
Размер: 4.25 GB
Как cкачать? Как скачать Закатать в асфальт через торрент | qTorrent

% Раздел Тема Автор DL S | L
Фильмы 2018 [DVDrip, WEB-DLRip, HDrip] (DUB, MVO) [ 3.11 GB ] Закатать в асфальт / Dragged Across Concrete [2018 BDRip-AVC] +MVO [HDRezka Studio] bober100 Скачать
5 | 0
Фильмы 2018 [DVDrip, WEB-DLRip, HDrip] (DUB, MVO) [ 2.11 GB ] Закатать в асфальт / Dragged Across Concrete [2018 BDRip] - Twi7ter Скачать
31 | 1
Фильмы (Blu-ray, BD-Remux, HDDVD) [ 35.71 GB ] Закатать в асфальт / Dragged Across Concrete [2018 BD Remux 1080p] bober100 Скачать
3 | 0
Фильмы (Blu-ray, BD-Remux, HDDVD) [ 43.38 GB ] Закатать в асфальт / Dragged Across Concrete [2018 Blu-ray 1080p] sheker187 Скачать
1 | 0
Фильмы [HD 720p, 1080p] (Хороший звук DUB, MVO) [ 11.14 GB ] Закатать в асфальт / Dragged Across Concrete [2018 BDRip 1080p] bober100 Скачать
14 | 0
Фильмы 2018 [DVDrip, WEB-DLRip, HDrip] (DUB, MVO) [ 1.46 GB ] Закатать в асфальт / Dragged Across Concrete [2018 BDRip] - Twi7ter Скачать
67 | 2
Фильмы 2018 [DVDrip, WEB-DLRip, HDrip] (DUB, MVO) [ 2.11 GB ] Закатать в асфальт / Dragged Across Concrete [2018 BDRip] bober100 Скачать
11 | 0

28-11-2019 20:33  

Отключить всю рекламу на сайте

06-05-2019 17:24 Закатать в асфальт Скачать торрент  

Мел старенький конечно. Как и уже многие герои 90-ых. Но фильм не плох. Стоит просмотра.pb.wtf



    Дорогой пользователь! Огромная просьба, поблагодарите релизера, оцените раздачу и оставьте свои комментарий, если Вы скачали Закатать в асфальт через торрент бесплатно! Внесите свою лепту в развитие PiratBit!
    Комментировать посты могут только пользователи прошедшие не сложную регистрацию
    Показать сообщения:    

    Закатать в асфальт через торрент
    Скачать бесплатно Закатать в асфальт
    Закатать в асфальт скачать торрент
    Закатать в асфальт смотреть онлайн
    Cкачать фильм Закатать в асфальт бесплатно
    Закатать в асфальт скачать торрент в хорошем качестве
    Закатать в асфальт смотреть онлайн бесплатно в хорошем качестве


    Вы не можете начинать темы
    Вы не можете отвечать на сообщения
    Вы не можете редактировать свои сообщения
    Вы не можете удалять свои сообщения
    Вы не можете голосовать в опросах
    Вы не можете прикреплять файлы к сообщениям
    Вы можете скачивать файлы