Ссылка на приватное зеркало всего за 1$. Внимание количество ограничено!!!

OK

1+1

iTunes

мы

OK

1

WEB-DLRip

Джокер

Пифагор

Ведьмак / The Witcher сериал

iTunes

ПШазам

ОК

Оно 2

iTunes

30
pack

Вам бонус

ВАЖНО

!!Акция!!

Alien_RageХит недели

RePack

Resident Evil 21

ИГРА 18+

pack

RePack

jed

RePack

fifa19

RePack

Assassins Creed: Odyssey

RePack

NEED FOR SPEED™ PAYBACK

4 сезон

9 сезон

Бесстыжие 9 сезон

Все сериалы

все сериалы на PB.wtf

RePack

FAR CRY 5
  

Плохой человек / The Bad Man (Скотт Ширмер) [2018, ужасы, BDRip 720p] MVO ["Синема УС"] pb.wtf

Плохой человек через торрент pb.wtf

Размер: 3.4 GB | Добавлен: 8 мес. назад | Торрент скачан:22 раза
Скачать  

30-04-2019 03:46 Плохой человек Скачать торрент  

Плохой человек / The Bad Man Год выпуска: 2018
Страна: США
Жанр: ужасы
Продолжительность: 01:25:40
Перевод: Любительский (многоголосый) | "Синема УС"
Субтитры: отсутствуют

Режиссер: Скотт Ширмер

rating

В ролях: Элли Черч, Артур Куллифер, Джейсон Кроу

Описание: Клоун-психопат с садистскими наклонностями делает Мэри и Пиджея заложниками в их собственном доме и начинает воспитывать, чтобы превратить в "куклу" и "пса" - живых секс-игрушек для последующей продажи на аукционе богатых извращенцев. Паре предстоит или согласиться на такую незавидную судьбу или рискнуть жизнью, чтобы вырваться на свободу.

Качество: BDRip 720p
Формат: MKV

Видео: h.264,5 294 Кбит/с, 1280x544
Аудио#1: Русский, (AC3, 2 ch, 384 Кбит/с)
скриншот  скриншот  скриншот  

Общее
Уникальный идентификатор : 185181707365917212411302313927688155670 (0x8B50B314D94AEAB0964E87CDB58D7216)
Полное имя : D:\the.bad.man.2018.P.BDRip.72Op.mkv
Формат : Matroska
Версия формата : Version 2
Размер файла : 3,40 Гбайт
Продолжительность : 1 ч. 25 м.
Режим общего битрейта : Переменный
Общий поток : 5680 Кбит/сек
Дата кодирования : UTC 2019-04-29 07:49:27
Программа кодирования : mkvmerge v8.3.0 ('Over the Horizon') 64bit
Библиотека кодирования : libebml v1.3.1 + libmatroska v1.4.2

Видео
Идентификатор : 1
Формат : AVC
Формат/Информация : Advanced Video Codec
Профиль формата : High@L4.1
Параметр CABAC формата : Да
Параметр RefFrames формата : 4 кадра
Идентификатор кодека : V_MPEG4/ISO/AVC
Продолжительность : 1 ч. 25 м.
Вид битрейта : Переменный
Битрейт : 5294 Кбит/сек
Максимальный битрейт : 6000 Кбит/сек
Ширина : 1280 пикселей
Высота : 544 пикселя
Соотношение сторон : 2,35:1
Режим частоты кадров : Постоянный
Частота кадров : 23,976 (24000/1001) кадра/сек
Стандарт вещания : Component
Цветовое пространство : YUV
Субдискретизация насыщенности : 4:2:0
Битовая глубина : 8 бит
Тип развёртки : Прогрессивная
Бит/(Пиксели*Кадры) : 0.310
Размер потока : 3,10 Гбайт (91%)
Default : Да
Forced : Нет
Цветовой диапазон : Limited
Основные цвета : BT.709
Характеристики трансфера : BT.709
Коэффициенты матрицы : BT.709

Аудио
Идентификатор : 2
Формат : AC-3
Формат/Информация : Audio Coding 3
Расширение режима : CM (complete main)
Параметр Endianness формата : Big
Идентификатор кодека : A_AC3
Продолжительность : 1 ч. 25 м.
Вид битрейта : Постоянный
Битрейт : 384 Кбит/сек
Каналы : 2 канала
Расположение каналов : Front: L R
Частота : 48,0 КГц
Частота кадров : 31,250 кадров/сек (1536 spf)
Метод сжатия : С потерями
Размер потока : 235 Мбайт (7%)
Default : Да
Forced : Нет

pb.wtf



Скачать Плохой человек через торрент https://a.radikal.ru/a05/1904/93/8a1473874a33.jpg Скачать фильм Плохой человек через торрент бесплантно в хорошем качестве Описание: Клоун-психопат с садистскими наклонностями делает Мэри и Пиджея заложниками в их собственном доме и начинает воспитывать, чтобы ... 10 10 2
Торрент: Зарегистрирован [2019-04-30 03:46] · скачан: 22 раз
Статус: T временная
Размер: 3.4 GB
Как cкачать? Как скачать Плохой человек через торрент | qTorrent

% Раздел Тема Автор DL S | L
T Фильмы (мультфильмы) cо спонсором показа (Новинки AVI/MKV) [ 1.37 GB ] Плохой человек / The Bad Man [2018 HDRip] MVO ["Синема УС"] bober100 Скачать
1 | 0

28-11-2019 20:33  

Отключить всю рекламу на сайте

    Дорогой пользователь! Огромная просьба, поблагодарите релизера, оцените раздачу и оставьте свои комментарий, если Вы скачали Плохой человек через торрент бесплатно! Внесите свою лепту в развитие PiratBit!
    Комментировать посты могут только пользователи прошедшие не сложную регистрацию
    Показать сообщения:    

    Плохой человек через торрент
    Скачать бесплатно Плохой человек
    Плохой человек скачать торрент
    Плохой человек смотреть онлайн
    Cкачать фильм Плохой человек бесплатно
    Плохой человек скачать торрент в хорошем качестве
    Плохой человек смотреть онлайн бесплатно в хорошем качестве


    Вы не можете начинать темы
    Вы не можете отвечать на сообщения
    Вы не можете редактировать свои сообщения
    Вы не можете удалять свои сообщения
    Вы не можете голосовать в опросах
    Вы не можете прикреплять файлы к сообщениям
    Вы можете скачивать файлы