Ссылка на приватное зеркало всего за 1$. Внимание количество ограничено!!!

OK

1+1

iTunes

мы

OK

1

WEB-DLRip

Джокер

Пифагор

Ведьмак / The Witcher сериал

iTunes

ПШазам

ОК

Оно 2

iTunes

30
pack

Вам бонус

ВАЖНО

!!Акция!!

Alien_RageХит недели

RePack

Resident Evil 21

ИГРА 18+

pack

RePack

jed

RePack

fifa19

RePack

Assassins Creed: Odyssey

RePack

NEED FOR SPEED™ PAYBACK

4 сезон

9 сезон

Бесстыжие 9 сезон

Все сериалы

все сериалы на PB.wtf

RePack

FAR CRY 5
  

Третья жена / Vợ Ba / The Third Wife (Эш Мэйфейр) [2018, драма, WEBRip 720p] MVO [КОЛОБОК] pb.wtf

Третья жена через торрент pb.wtf

Размер: 3.04 GB | Добавлен: 8 мес. назад | Торрент скачан:18 раз
Скачать  

30-04-2019 04:03 Третья жена Скачать торрент  

Третья жена / Vợ Ba / The Third Wife Год выпуска: 2018
Страна: Вьетнам
Жанр: драма
Продолжительность: 01:38:15
Перевод: Любительский (многоголосый) | КОЛОБОК
Субтитры: Вшитые (Китайские, Английские)

Режиссер: Эш Мэйфейр

rating

В ролях: Лонг Ле Ву, Май Чу Хуонг Майя, Нгуен Фуонг Тра Май, Ньы Куинь Нгуен, Нгуен Тхань Там, Лам Тхань Май, Чан Ну Йен Кхе

Описание: Это история четырнадцатилетней девочки, которую отдали в младшие жены состоятельному землевладельцу. Как и у всех жен, её основная цель - сделать всё, чтобы родить наследника, но возможно она сама желает чего-то большего...

Качество: WEBRip 720p
Формат: MKV

Видео: h.264,4 047 Кбит/с, 1072x720
Аудио#1: Русский, (AC3, 2 ch, 384 Кбит/с)
скриншот  скриншот  скриншот  

Общее
Уникальный идентификатор : 179039656256638081218722075845182637513 (0x86B1C894E19166E28D0A98D906C845C9)
Полное имя : D:\The.Third.Wife.2018.Pk.WEBRip.72Op.mkv
Формат : Matroska
Версия формата : Version 2
Размер файла : 3,04 Гбайт
Продолжительность : 1 ч. 38 м.
Режим общего битрейта : Переменный
Общий поток : 4433 Кбит/сек
Дата кодирования : UTC 2019-04-29 05:42:12
Программа кодирования : mkvmerge v8.3.0 ('Over the Horizon') 64bit
Библиотека кодирования : libebml v1.3.1 + libmatroska v1.4.2

Видео
Идентификатор : 1
Формат : AVC
Формат/Информация : Advanced Video Codec
Профиль формата : High@L4.1
Параметр CABAC формата : Да
Параметр RefFrames формата : 4 кадра
Идентификатор кодека : V_MPEG4/ISO/AVC
Продолжительность : 1 ч. 38 м.
Вид битрейта : Переменный
Битрейт : 4047 Кбит/сек
Максимальный битрейт : 5000 Кбит/сек
Ширина : 1072 пикселя
Высота : 720 пикселей
Соотношение сторон : 3:2
Режим частоты кадров : Постоянный
Частота кадров : 23,976 (24000/1001) кадра/сек
Стандарт вещания : Component
Цветовое пространство : YUV
Субдискретизация насыщенности : 4:2:0
Битовая глубина : 8 бит
Тип развёртки : Прогрессивная
Бит/(Пиксели*Кадры) : 0.214
Размер потока : 2,72 Гбайт (89%)
Default : Да
Forced : Нет
Цветовой диапазон : Limited
Основные цвета : BT.709
Характеристики трансфера : BT.709
Коэффициенты матрицы : BT.709

Аудио
Идентификатор : 2
Формат : AC-3
Формат/Информация : Audio Coding 3
Расширение режима : CM (complete main)
Параметр Endianness формата : Big
Идентификатор кодека : A_AC3
Продолжительность : 1 ч. 38 м.
Вид битрейта : Постоянный
Битрейт : 384 Кбит/сек
Каналы : 2 канала
Расположение каналов : Front: L R
Частота : 48,0 КГц
Частота кадров : 31,250 кадров/сек (1536 spf)
Метод сжатия : С потерями
Размер потока : 270 Мбайт (9%)
Default : Да
Forced : Нет

pb.wtf



Скачать Третья жена через торрент https://b.radikal.ru/b09/1904/39/7547f7dd889f.jpg Скачать фильм Третья жена через торрент бесплантно в хорошем качестве Описание: Это история четырнадцатилетней девочки, которую отдали в младшие жены состоятельному землевладельцу. Как и у всех жен, её ... 10 10 2
Торрент: Зарегистрирован [2019-04-30 04:03] · скачан: 18 раз
Статус: T временная
Размер: 3.04 GB
Как cкачать? Как скачать Третья жена через торрент | qTorrent

% Раздел Тема Автор DL S | L
T Фильмы (мультфильмы) cо спонсором показа (Новинки AVI/MKV) [ 1.37 GB ] Третья жена / Vợ Ba / The Third Wife [2018 WEBRip] MVO [КОЛОБОК] bober100 Скачать
1 | 0

28-11-2019 20:33  

Отключить всю рекламу на сайте

    Дорогой пользователь! Огромная просьба, поблагодарите релизера, оцените раздачу и оставьте свои комментарий, если Вы скачали Третья жена через торрент бесплатно! Внесите свою лепту в развитие PiratBit!
    Комментировать посты могут только пользователи прошедшие не сложную регистрацию
    Показать сообщения:    

    Третья жена через торрент
    Скачать бесплатно Третья жена
    Третья жена скачать торрент
    Третья жена смотреть онлайн
    Cкачать фильм Третья жена бесплатно
    Третья жена скачать торрент в хорошем качестве
    Третья жена смотреть онлайн бесплатно в хорошем качестве


    Вы не можете начинать темы
    Вы не можете отвечать на сообщения
    Вы не можете редактировать свои сообщения
    Вы не можете удалять свои сообщения
    Вы не можете голосовать в опросах
    Вы не можете прикреплять файлы к сообщениям
    Вы можете скачивать файлы