Ссылка на приватное зеркало всего за 1$. Внимание количество ограничено!!!

OK

1+1

iTunes

мы

OK

1

WEB-DLRip

Джокер

Пифагор

Ведьмак / The Witcher сериал

iTunes

ПШазам

ОК

Оно 2

iTunes

30
pack

Вам бонус

ВАЖНО

!!Акция!!

Alien_RageХит недели

RePack

Resident Evil 21

ИГРА 18+

pack

RePack

jed

RePack

fifa19

RePack

Assassins Creed: Odyssey

RePack

NEED FOR SPEED™ PAYBACK

4 сезон

9 сезон

Бесстыжие 9 сезон

Все сериалы

все сериалы на PB.wtf

RePack

FAR CRY 5
  

Тро3 / Thr33 (Ник Хаген) [2016, Ужасы, WEBRip 720p] MVO ["Синема УС"] pb.wtf

Тро3 через торрент pb.wtf

Размер: 2.43 GB | Добавлен: 8 мес. назад | Торрент скачан:15 раз
Скачать  

30-04-2019 04:14 Тро3 Скачать торрент  

Тро3 / Thr33Год выпуска: 2016
Страна: США
Жанр: Ужасы
Продолжительность: 01:04:40
Перевод: Любительский (многоголосый) | "Синема УС"
Субтитры: отсутствуют

Режиссер: Ник Хаген

rating

В ролях: Пейдж Маккензи

Описание: Первый полнометражный фильм знаменитой Пейдж МакКензи - профессиональной жертвы приведений, в котором она исполнила роль ничего не подозревающей девушки взявшейся прибраться в выставленном на продажу доме. К сожалению, дом этот не чистый во всех смыслах, говорят предыдущая его хозяйка погибла... встретив призрака.

Качество: WEBRip 720p
Формат: MKV

Видео: h.264,4 994 Кбит/с, 1280x530
Аудио#1: Русский, (AC3, 2 ch, 384 Кбит/с)
скриншот  скриншот  скриншот  

Общее
Уникальный идентификатор : 250719471379721050923418823296215963980 (0xBC9ED05262E0F3189B8D64134C68594C)
Полное имя : D:\Thr33.2016.Pk.WEBRip.72Op.mkv
Формат : Matroska
Версия формата : Version 2
Размер файла : 2,43 Гбайт
Продолжительность : 1 ч. 4 м.
Режим общего битрейта : Переменный
Общий поток : 5379 Кбит/сек
Дата кодирования : UTC 2019-04-29 05:35:04
Программа кодирования : mkvmerge v8.3.0 ('Over the Horizon') 64bit
Библиотека кодирования : libebml v1.3.1 + libmatroska v1.4.2

Видео
Идентификатор : 1
Формат : AVC
Формат/Информация : Advanced Video Codec
Профиль формата : High@L4.1
Параметр CABAC формата : Да
Параметр RefFrames формата : 4 кадра
Идентификатор кодека : V_MPEG4/ISO/AVC
Продолжительность : 1 ч. 4 м.
Вид битрейта : Переменный
Битрейт : 4994 Кбит/сек
Максимальный битрейт : 6000 Кбит/сек
Ширина : 1280 пикселей
Высота : 530 пикселей
Соотношение сторон : 2,40:1
Режим частоты кадров : Постоянный
Частота кадров : 23,976 (24000/1001) кадра/сек
Стандарт вещания : Component
Цветовое пространство : YUV
Субдискретизация насыщенности : 4:2:0
Битовая глубина : 8 бит
Тип развёртки : Прогрессивная
Бит/(Пиксели*Кадры) : 0.301
Размер потока : 2,21 Гбайт (91%)
Default : Да
Forced : Нет
Цветовой диапазон : Limited
Основные цвета : BT.709
Характеристики трансфера : BT.709
Коэффициенты матрицы : BT.709

Аудио
Идентификатор : 2
Формат : AC-3
Формат/Информация : Audio Coding 3
Расширение режима : CM (complete main)
Параметр Endianness формата : Big
Идентификатор кодека : A_AC3
Продолжительность : 1 ч. 4 м.
Вид битрейта : Постоянный
Битрейт : 384 Кбит/сек
Каналы : 2 канала
Расположение каналов : Front: L R
Частота : 48,0 КГц
Частота кадров : 31,250 кадров/сек (1536 spf)
Метод сжатия : С потерями
Размер потока : 178 Мбайт (7%)
Default : Да
Forced : Нет

pb.wtf



Скачать Тро3 через торрент https://funkyimg.com/i/2TxBd.jpg Скачать фильм Тро3 через торрент бесплантно в хорошем качестве Описание: Первый полнометражный фильм знаменитой Пейдж МакКензи - профессиональной жертвы приведений, в котором она исполнила роль ничего ... 7.8 10 4
Торрент: Зарегистрирован [2019-04-30 04:14] · скачан: 15 раз
Статус: T временная
Размер: 2.43 GB
Как cкачать? Как скачать Тро3 через торрент | qTorrent

% Раздел Тема Автор DL S | L
T Фильмы (мультфильмы) cо спонсором показа (Новинки AVI/MKV) [ 1.18 GB ] Тро3 / Thr33 [2016 WEBRip] MVO ["Синема УС"] bober100 Скачать
1 | 0

28-11-2019 20:33  

Отключить всю рекламу на сайте

    Дорогой пользователь! Огромная просьба, поблагодарите релизера, оцените раздачу и оставьте свои комментарий, если Вы скачали Тро3 через торрент бесплатно! Внесите свою лепту в развитие PiratBit!
    Комментировать посты могут только пользователи прошедшие не сложную регистрацию
    Показать сообщения:    

    Тро3 через торрент
    Скачать бесплатно Тро3
    Тро3 скачать торрент
    Тро3 смотреть онлайн
    Cкачать фильм Тро3 бесплатно
    Тро3 скачать торрент в хорошем качестве
    Тро3 смотреть онлайн бесплатно в хорошем качестве


    Вы не можете начинать темы
    Вы не можете отвечать на сообщения
    Вы не можете редактировать свои сообщения
    Вы не можете удалять свои сообщения
    Вы не можете голосовать в опросах
    Вы не можете прикреплять файлы к сообщениям
    Вы можете скачивать файлы