Ссылка на приватное зеркало всего за 1$. Внимание количество ограничено!!!

OK

1+1

iTunes

мы

OK

1

WEB-DLRip

Джокер

Пифагор

Ведьмак / The Witcher сериал

iTunes

ПШазам

ОК

Оно 2

iTunes

30
pack

Вам бонус

ВАЖНО

!!Акция!!

Alien_RageХит недели

RePack

Resident Evil 21

ИГРА 18+

pack

RePack

jed

RePack

fifa19

RePack

Assassins Creed: Odyssey

RePack

NEED FOR SPEED™ PAYBACK

4 сезон

9 сезон

Бесстыжие 9 сезон

Все сериалы

все сериалы на PB.wtf

RePack

FAR CRY 5
  

Вирусная красотка / Viral Beauty (Дэвид Тайсон Лэм) [2017, мелодрама, комедия, WEB-DL 720p] MVO ["Синема УС"] pb.wtf

Вирусная красотка через торрент pb.wtf

Размер: 3.36 GB | Добавлен: 8 мес. назад | Торрент скачан:30 раз
Скачать  

30-04-2019 04:49 Вирусная красотка Скачать торрент  

Вирусная красотка / Viral Beauty Год выпуска: 2017
Страна: США, Канада
Жанр: мелодрама, комедия
Продолжительность: 01:26:05
Перевод: Любительский (многоголосый) | "Синема УС"
Субтитры: отсутствуют

Режиссер: Дэвид Тайсон Лэм

rating

В ролях:

Кэйси Киллоран, Перес Хилтон, Марк Жюнек, Руибо Цянь, Николя Фоти, Эмма Уиллманн, Пау Масо Коромина, Бен Мел, Кристи Эскобар, Дион Йорк

Описание:

Она хотела всего лишь сходить на свидание и встретить достойного мужчину, а взамен прославилась на весь интернет и получила миллион подписчиков.

Качество: WEB-DL 720p
Формат: MKV

Видео: h.264,5 199 Кбит/с, 1280x720
Аудио: Русский, (AC3, 2 ch, 384 Кбит/с)
скриншот  скриншот  скриншот  

Общее
Уникальный идентификатор : 224808912799544808036159078005787663369 (0xA9209F273EABA870A2912186E59D1C09)
Полное имя : D:\viral.beauty.2017.P.WEB_DL.72Op.mkv
Формат : Matroska
Версия формата : Version 2
Размер файла : 3,36 Гбайт
Продолжительность : 1 ч. 26 м.
Режим общего битрейта : Переменный
Общий поток : 5585 Кбит/сек
Дата кодирования : UTC 2019-04-29 03:01:01
Программа кодирования : mkvmerge v8.3.0 ('Over the Horizon') 64bit
Библиотека кодирования : libebml v1.3.1 + libmatroska v1.4.2

Видео
Идентификатор : 1
Формат : AVC
Формат/Информация : Advanced Video Codec
Профиль формата : High@L4.1
Параметр CABAC формата : Да
Параметр RefFrames формата : 4 кадра
Идентификатор кодека : V_MPEG4/ISO/AVC
Продолжительность : 1 ч. 26 м.
Вид битрейта : Переменный
Битрейт : 5199 Кбит/сек
Максимальный битрейт : 6000 Кбит/сек
Ширина : 1280 пикселей
Высота : 720 пикселей
Соотношение сторон : 16:9
Режим частоты кадров : Постоянный
Частота кадров : 23,976 (24000/1001) кадра/сек
Стандарт вещания : Component
Цветовое пространство : YUV
Субдискретизация насыщенности : 4:2:0
Битовая глубина : 8 бит
Тип развёртки : Прогрессивная
Бит/(Пиксели*Кадры) : 0.230
Размер потока : 3,06 Гбайт (91%)
Default : Да
Forced : Нет
Цветовой диапазон : Limited
Основные цвета : BT.709
Характеристики трансфера : BT.709
Коэффициенты матрицы : BT.709

Аудио
Идентификатор : 2
Формат : AC-3
Формат/Информация : Audio Coding 3
Расширение режима : CM (complete main)
Параметр Endianness формата : Big
Идентификатор кодека : A_AC3
Продолжительность : 1 ч. 26 м.
Вид битрейта : Постоянный
Битрейт : 384 Кбит/сек
Каналы : 2 канала
Расположение каналов : Front: L R
Частота : 48,0 КГц
Частота кадров : 31,250 кадров/сек (1536 spf)
Метод сжатия : С потерями
Размер потока : 236 Мбайт (7%)
Default : Да
Forced : Нет

pb.wtf



Скачать Вирусная красотка через торрент https://a.radikal.ru/a21/1904/4c/9556dff00116.jpg Скачать фильм Вирусная красотка через торрент бесплантно в хорошем качестве Описание: Она хотела всего лишь сходить на свидание и встретить достойного мужчину, а взамен прославилась на весь интернет и получила ... 10 10 3
Торрент: Зарегистрирован [2019-04-30 04:49] · скачан: 30 раз
Статус: T временная
Размер: 3.36 GB
Как cкачать? Как скачать Вирусная красотка через торрент | qTorrent

% Раздел Тема Автор DL S | L
T Фильмы (мультфильмы) cо спонсором показа (Новинки AVI/MKV) [ 1.37 GB ] Вирусная красотка / Viral Beauty [2017 WEB-DLRip] MVO ["Синема УС"] bober100 Скачать
1 | 0

28-11-2019 20:33  

Отключить всю рекламу на сайте

    Дорогой пользователь! Огромная просьба, поблагодарите релизера, оцените раздачу и оставьте свои комментарий, если Вы скачали Вирусная красотка через торрент бесплатно! Внесите свою лепту в развитие PiratBit!
    Комментировать посты могут только пользователи прошедшие не сложную регистрацию
    Показать сообщения:    

    Вирусная красотка через торрент
    Скачать бесплатно Вирусная красотка
    Вирусная красотка скачать торрент
    Вирусная красотка смотреть онлайн
    Cкачать фильм Вирусная красотка бесплатно
    Вирусная красотка скачать торрент в хорошем качестве
    Вирусная красотка смотреть онлайн бесплатно в хорошем качестве


    Вы не можете начинать темы
    Вы не можете отвечать на сообщения
    Вы не можете редактировать свои сообщения
    Вы не можете удалять свои сообщения
    Вы не можете голосовать в опросах
    Вы не можете прикреплять файлы к сообщениям
    Вы можете скачивать файлы