Ссылка на приватное зеркало всего за 1$. Внимание количество ограничено!!!

OK

1+1

iTunes

мы

OK

1

WEB-DLRip

Джокер

Пифагор

Ведьмак / The Witcher сериал

iTunes

ПШазам

ОК

Оно 2

iTunes

30
pack

Вам бонус

ВАЖНО

!!Акция!!

Alien_RageХит недели

RePack

Resident Evil 21

ИГРА 18+

pack

RePack

jed

RePack

fifa19

RePack

Assassins Creed: Odyssey

RePack

NEED FOR SPEED™ PAYBACK

4 сезон

9 сезон

Бесстыжие 9 сезон

Все сериалы

все сериалы на PB.wtf

RePack

FAR CRY 5
  

Мой друг дельфин Эхо / Dolphin Kick (Филип Марлатт) [2019, Приключения, WEB-DL 720p] DUB [Line] pb.wtf

Мой друг дельфин Эхо через торрент pb.wtf

Размер: 3.49 GB | Добавлен: 8 мес. назад | Торрент скачан:58 раз
Скачать  

30-04-2019 05:23 Мой друг дельфин Эхо Скачать торрент  

Мой друг дельфин Эхо / Dolphin Kick Год выпуска: 2019
Страна: США
Жанр: Приключения
Продолжительность: 01:26:54
Перевод: Дублированный | Line
Субтитры: отсутствуют

Режиссер: Филип Марлатт

rating

В ролях:

Тайлер Джейд Никсон, Аксель Маккой, Трэвис Маккой, Алексис Лодер, Девон Гоу, Тим Оглтри, ЛаВон Хэмилтон, Майя Симмонс, Куддус Ньютон, Томи Калмер

Описание:

Отдыхая со своей семьей на тропическом острове на Багамах, 10-ти летний Люк знакомится с дружелюбным и игривым дельфином Эхо. Дельфин становится верным другом Люка, с которым он проводит всё своё свободное время, ныряя в волнах и играя целыми днями напролёт. Однажды дельфин Эхо оказывается в опасности. Люк со своей сестрой разрабатывают план, чтобы спасти их нового друга дельфина.

Качество: WEB-DL 720p
Формат: MKV

Видео: h.264,5 369 Кбит/с, 1280x720
Аудио#1: Русский, (AC3, 2 ch, 384 Кбит/с)
скриншот  скриншот  скриншот  

Общее
Уникальный идентификатор : 182872723583133198384763918221500775442 (0x8994016441A0A108A28A0E4438C07C12)
Полное имя : D:\Moy.DRuG.DelFiNN.EXO.2019.D.WEB-DL.72Op.mkv
Формат : Matroska
Версия формата : Version 2
Размер файла : 3,49 Гбайт
Продолжительность : 1 ч. 26 м.
Режим общего битрейта : Переменный
Общий поток : 5755 Кбит/сек
Дата кодирования : UTC 2019-04-29 00:12:29
Программа кодирования : mkvmerge v8.3.0 ('Over the Horizon') 64bit
Библиотека кодирования : libebml v1.3.1 + libmatroska v1.4.2

Видео
Идентификатор : 1
Формат : AVC
Формат/Информация : Advanced Video Codec
Профиль формата : High@L4.1
Параметр CABAC формата : Да
Параметр RefFrames формата : 4 кадра
Идентификатор кодека : V_MPEG4/ISO/AVC
Продолжительность : 1 ч. 26 м.
Вид битрейта : Переменный
Битрейт : 5369 Кбит/сек
Максимальный битрейт : 6000 Кбит/сек
Ширина : 1280 пикселей
Высота : 720 пикселей
Соотношение сторон : 16:9
Режим частоты кадров : Постоянный
Частота кадров : 23,976 (24000/1001) кадра/сек
Стандарт вещания : Component
Цветовое пространство : YUV
Субдискретизация насыщенности : 4:2:0
Битовая глубина : 8 бит
Тип развёртки : Прогрессивная
Бит/(Пиксели*Кадры) : 0.238
Размер потока : 3,19 Гбайт (91%)
Default : Да
Forced : Нет
Цветовой диапазон : Limited
Основные цвета : BT.709
Характеристики трансфера : BT.709
Коэффициенты матрицы : BT.709

Аудио
Идентификатор : 2
Формат : AC-3
Формат/Информация : Audio Coding 3
Расширение режима : CM (complete main)
Параметр Endianness формата : Big
Идентификатор кодека : A_AC3
Продолжительность : 1 ч. 26 м.
Вид битрейта : Постоянный
Битрейт : 384 Кбит/сек
Каналы : 2 канала
Расположение каналов : Front: L R
Частота : 48,0 КГц
Частота кадров : 31,250 кадров/сек (1536 spf)
Метод сжатия : С потерями
Размер потока : 239 Мбайт (7%)
Default : Да
Forced : Нет

pb.wtf



Скачать Мой друг дельфин Эхо через торрент https://c.radikal.ru/c28/1904/9a/067b713c688e.jpg Скачать фильм Мой друг дельфин Эхо через торрент бесплантно в хорошем качестве Описание: Отдыхая со своей семьей на тропическом острове на Багамах, 10-ти летний Люк знакомится с дружелюбным и игривым дельфином Эхо. ... 10 10 2
Торрент: Зарегистрирован [2019-04-30 05:23] · скачан: 58 раз
Статус: T временная
Размер: 3.49 GB
Как cкачать? Как скачать Мой друг дельфин Эхо через торрент | qTorrent

% Раздел Тема Автор DL S | L
Фильмы (WEB-DL 720p, 1080p) [ 3.44 GB ] Мой друг дельфин Эхо / Dolphin Kick [2019 WEB-DL 1080p] killermax2013 Скачать
1 | 0
T Фильмы (мультфильмы) cо спонсором показа (Новинки AVI/MKV) [ 1.37 GB ] Мой друг дельфин Эхо / Dolphin Kick [2019 WEB-DLRip] DUB [Line] bober100 Скачать
1 | 0
T Фильмы 2019-2020 [DVDrip, WEB-DLRip, HDrip] (DUB, MVO) [ 1.37 GB ] Мой друг дельфин Эхо / Dolphin Kick [2019 DVDRip] MVO [HDREzka Studio] - ExKinoRay Enigma2010 Скачать
34 | 3

28-11-2019 20:33  

Отключить всю рекламу на сайте

    Дорогой пользователь! Огромная просьба, поблагодарите релизера, оцените раздачу и оставьте свои комментарий, если Вы скачали Мой друг дельфин Эхо через торрент бесплатно! Внесите свою лепту в развитие PiratBit!
    Комментировать посты могут только пользователи прошедшие не сложную регистрацию
    Показать сообщения:    

    Мой друг дельфин Эхо через торрент
    Скачать бесплатно Мой друг дельфин Эхо
    Мой друг дельфин Эхо скачать торрент
    Мой друг дельфин Эхо смотреть онлайн
    Cкачать фильм Мой друг дельфин Эхо бесплатно
    Мой друг дельфин Эхо скачать торрент в хорошем качестве
    Мой друг дельфин Эхо смотреть онлайн бесплатно в хорошем качестве


    Вы не можете начинать темы
    Вы не можете отвечать на сообщения
    Вы не можете редактировать свои сообщения
    Вы не можете удалять свои сообщения
    Вы не можете голосовать в опросах
    Вы не можете прикреплять файлы к сообщениям
    Вы можете скачивать файлы