Наша группа ВК в очередной раз забанена мы уходим в Телеграм, присоединяйтесь!!!

Лицензия

30

iTunes

мы

iTunes

1

1 сезон

Чернобыль

iTunes

1+1

iTunes

Закатать в асфальт

8 сезон

Игра престолов

1 сезон

Ральф против интернета

ИГРА 18+

pack

ВАЖНО

!!Акция!!

Alien_RageХит недели

RePack

Resident Evil 21
pack

RePack

Metro:Exodus

!!Акция!!

Alien_Rage

RePack

fifa19

RePack

Assassins Creed: Odyssey

RePack

NEED FOR SPEED™ PAYBACK

3 сезон

9 сезон

Бесстыжие 9 сезон

Все сериалы

все сериалы на PB.wtf

RePack

FAR CRY 5
Ребята, катастрофически не хватает 2730р. для оплаты серверов за АПРЕЛЬ (всвязи с блокировками трафик упал в 3 раза), 1-2р., выручайте.
  

За кулисами (Илья Ермолов, Игорь Каграманов, Эвелина Барсегян) [2019, комедия, драма, TS 720p] pb.wtf

За кулисами через торрент pb.wtf

Размер: 2.13 GB | Добавлен: 23 д. назад | Торрент скачан:9 раз
Скачать  

30-04-2019 05:35 За кулисами Скачать торрент  

За кулисами Год выпуска: 2019
Страна: Россия
Жанр: комедия, драма
Продолжительность: 01:15:42
Перевод: Не требуется
Субтитры: отсутствуют

Режиссер: Илья Ермолов, Игорь Каграманов, Эвелина Барсегян



В ролях:

Юрий Стоянов, Павел Деревянко, Карина Разумовская, Виктория Верберг, Денис Фомин, Алевтина Даниленко, Виктор Барченко, Сергей Бредюк, Михаил Калиничев, Борис Шильманский

Описание:

Зрители привыкли следить за перипетиями судеб вымышленных персонажей, но за кулисами могут разворачиваться не менее интересные истории. Иногда они смешные, иногда - страшные, но точно - всегда интересные.

Руководитель театра вынужден проявить всю свою управленческую хитрость в условиях дефицита финансов и талантов. Другой герой знакомит зрителя с проблемами гениального актёра, оказавшегося на площадке второсортного телесериала. А подсадной бравист внезапно встречает свою первую любовь в зрительном зале театра и на свою беду решает за ней приударить.

Качество: TS 720p
Формат: MKV

Видео: h.264, 3 651 Кбит/с, 1280x536
Аудио: Русский, (AC3, 2 ch, 384 Кбит/с)
скриншот  скриншот  скриншот  

Общее
Уникальный идентификатор : 248865250166338065561491679072785574964 (0xBB39B4286369FE57B57D0EBBD7A4AC34)
Полное имя : D:\Za.KuLiSami.2O19.O.TS.72Op.mkv
Формат : Matroska
Версия формата : Version 2
Размер файла : 2,13 Гбайт
Продолжительность : 1 ч. 15 м.
Режим общего битрейта : Переменный
Общий поток : 4037 Кбит/сек
Дата кодирования : UTC 2019-04-29 03:13:05
Программа кодирования : mkvmerge v8.3.0 ('Over the Horizon') 64bit
Библиотека кодирования : libebml v1.3.1 + libmatroska v1.4.2

Видео
Идентификатор : 1
Формат : AVC
Формат/Информация : Advanced Video Codec
Профиль формата : High@L4.1
Параметр CABAC формата : Да
Параметр RefFrames формата : 4 кадра
Идентификатор кодека : V_MPEG4/ISO/AVC
Продолжительность : 1 ч. 15 м.
Вид битрейта : Переменный
Битрейт : 3651 Кбит/сек
Максимальный битрейт : 4000 Кбит/сек
Ширина : 1280 пикселей
Высота : 536 пикселей
Соотношение сторон : 2,40:1
Режим частоты кадров : Постоянный
Частота кадров : 23,976 (24000/1001) кадра/сек
Стандарт вещания : Component
Цветовое пространство : YUV
Субдискретизация насыщенности : 4:2:0
Битовая глубина : 8 бит
Тип развёртки : Прогрессивная
Бит/(Пиксели*Кадры) : 0.217
Размер потока : 1,89 Гбайт (88%)
Default : Да
Forced : Нет
Цветовой диапазон : Limited
Основные цвета : BT.709
Характеристики трансфера : BT.709
Коэффициенты матрицы : BT.709

Аудио
Идентификатор : 2
Формат : AC-3
Формат/Информация : Audio Coding 3
Расширение режима : CM (complete main)
Параметр Endianness формата : Big
Идентификатор кодека : A_AC3
Продолжительность : 1 ч. 15 м.
Вид битрейта : Постоянный
Битрейт : 384 Кбит/сек
Каналы : 2 канала
Расположение каналов : Front: L R
Частота : 48,0 КГц
Частота кадров : 31,250 кадров/сек (1536 spf)
Метод сжатия : С потерями
Размер потока : 208 Мбайт (10%)
Default : Да
Forced : Нет

pb.wtf



Скачать За кулисами через торрент https://b.radikal.ru/b07/1904/7c/5c2b7684983d.jpg Скачать фильм За кулисами через торрент бесплантно в хорошем качестве Описание: Зрители привыкли следить за перипетиями судеб вымышленных персонажей, но за кулисами могут разворачиваться не менее интересные ... 10 10 2
Торрент: Зарегистрирован [2019-04-30 05:35] · скачан: 9 раз
Статус: T временная
Размер: 2.13 GB
Как cкачать? Как скачать За кулисами через торрент | qTorrent

% Раздел Тема Автор DL S | L
T Наши фильмы (мультфильмы) cо спонсором показа (Новинки AVI/MKV) [ 1.37 GB ] За кулисами [2019 TS] bober100 Скачать
1 | 0
Порно фильмы HD [ 1.36 GB ] 100% Реальные Групповухи 3: Попы за кулисой / 100% Real Groupies 3: Backstage Booty [2015 Amateur Celebrity Gonzo Home Made Movies Point Of View WEB-DL 720p Оригинальный] DJASFUL Скачать
1 | 0
Гонзо [ 1.29 GB ] Анисса Кэт Отведет Вас За Кулисы / Anissa Kate Takes You Backstage [2016 All Sex Anal Oral Gonzo BigTits Porn Stars WEB-DLRip 480p] Split Scenes sheker187 Скачать
1 | 0
Порно фильмы без сюжета [ 698 MB ] Фейерверки за кулисами / Backstage Bangers [2015 Hardcore Group Sex Oral Sex Lesbian Threesomes Cumshots/Sperm WEB-DL Оригинальный] nn99nn Скачать
1 | 0
Порно фильмы с русским переводом [ 2.05 GB ] За Кулисами / Fashion Underground [2006 Feature DVDRip двухголосый] Pir@tya2010 Скачать
1 | 0
Анальный секс [ 271 MB ] За кулисами / Brooklyn's Backstage Bang [2014 All Sex Anal Oral Pantyhose SATRip] sheker187 Скачать
1 | 0
Документальные фильмы и телепередачи [ 610 MB ] Единая Германия. За кулисами триумфа [2013 документальный SATRip Оригинал] кэп Скачать
1 | 0


>> Регистрируемся здесь <<






Отзывы и комментарии о схеме читаем и пишем здесь: ---> Отзывы и комментарии о схеме

Новые благодарочки в телеграм довольных пользователей:
скриншот   скриншот   скриншот   скриншот   скриншот
    Дорогой пользователь! Огромная просьба, поблагодарите релизера, оцените раздачу и оставьте свои комментарий, если Вы скачали За кулисами через торрент бесплатно! Внесите свою лепту в развитие PiratBit!
    Комментировать посты могут только пользователи прошедшие не сложную регистрацию
    Показать сообщения:    

    За кулисами через торрент
    Скачать бесплатно За кулисами
    За кулисами скачать торрент
    За кулисами смотреть онлайн
    Cкачать фильм За кулисами бесплатно
    За кулисами скачать торрент в хорошем качестве
    За кулисами смотреть онлайн бесплатно в хорошем качестве


    Вы не можете начинать темы
    Вы не можете отвечать на сообщения
    Вы не можете редактировать свои сообщения
    Вы не можете удалять свои сообщения
    Вы не можете голосовать в опросах
    Вы не можете прикреплять файлы к сообщениям
    Вы можете скачивать файлы