новый адрес пиратбит piratbit
Мега распродажа FORZA HORIZON 4 ULTIMATE+ВСЕ DLC+ОНЛАЙН всего за 499р. 349 руб. (супер цена). Внимание количество ограничено!!!

iTunes

1+1

iTunes

мы

iTunes

1

iTunes

Чернобыль

iTunes

Ральф против интернета

Лицензия

ПШазам

Лицензия

Игра престолов

Лицензия

30
pack

ВАЖНО

!!Акция!!

Alien_RageХит недели

RePack

Resident Evil 21

ИГРА 18+

pack

RePack

Metro:Exodus

!!Акция!!

Alien_Rage

RePack

fifa19

RePack

Assassins Creed: Odyssey

RePack

NEED FOR SPEED™ PAYBACK

3 сезон

9 сезон

Бесстыжие 9 сезон

Все сериалы

все сериалы на PB.wtf

RePack

FAR CRY 5
Ребята, катастрофически не хватает 1900р. для оплаты серверов за Октябрь (всвязи с блокировками трафик упал в 3 раза), 1-2р., выручайте.
  

Заповедник (Анна Матисон) [2018, комедия, WEB-DLRip] [iTunes] pb.wtf

Заповедник через торрент pb.wtf

Размер: 1.46 GB | Добавлен: 6 мес. назад | Торрент скачан:469 раз
Скачать  

30-04-2019 16:50 Заповедник Скачать торрент  

Заповедник Год выпуска: 2018
Страна: Россия
Жанр: комедия
Продолжительность: 01:48:12
Перевод: Не требуется | iTunes
Субтитры: отсутствуют

Режиссер: Анна Матисон

rating

В ролях:

Сергей Безруков, Евгения Крегжде, Анна Михалкова, Гоша Куценко, Александр Семчев, Дмитрий Хрусталев, Виктор Бычков, Софья Евстигнеева, Ярослава Дегтярёва, Леонид Агутин

Описание:

Константин, автор песен и виртуозный гитарист, сбегает от накопившихся проблем в заповедник «Михайловское». Костя давно лишился всех способов заработка, почти отчаялся быть услышанным и живет по инерции, часто налегая на алкоголь. Жена и дочь собираются уезжать в Канаду, а в голове бесконечно крутятся вопросы: что именно пошло не так? Как это исправить? Нужно ли вообще кому-то моё творчество, или я сам убедил себя в этом? Возможно, у Константина и достаточно сил, чтобы попытаться всё изменить, но он сильно сомневается, что есть, ради чего и ради кого стараться. Тем не менее, Заповедник — на то и Заповедник, чтобы собраться с мыслями, разбить минное поле собственной жизни на участки и приняться за работу.

Качество: WEB-DLRip
Формат: AVI

Видео: 704x288 (2.44:1), 23.976 fps, XviD build 73 ~1534 kbps avg, 0.32 bit/pixel
Аудио: 48 kHz, AC3 Dolby Digital, 3/2 (L,C,R,l,r) + LFE ch, ~384 kbps - iTunes
скриншот  скриншот  скриншот  скриншот  

Формат : AVI
Формат/Информация : Audio Video Interleave
Размер файла : 1,46 Гбайт
Продолжительность : 1 ч. 48 м.
Общий поток : 1928 Кбит/сек
Название фильма : Заповедник_2018_WEB-DLRip
Программа кодирования : VirtualDubMod 1.5.10.3
Библиотека кодирования : VirtualDubMod build 2550/release
Авторское право : порошков

Видео
Идентификатор : 0
Формат : MPEG-4 Visual
Профиль формата : Advanced Simple@L5
Настройки формата : BVOP1 / Custom Matrix
Параметр BVOP формата : 1
Параметр QPel формата : Нет
Параметр GMC формата : Без точки перехода
Параметр матрицы формата : Выборочная
Идентификатор кодека : XVID
Идентификатор кодека/Подсказка : XviD
Продолжительность : 1 ч. 48 м.
Битрейт : 1534 Кбит/сек
Ширина : 704 пикселя
Высота : 288 пикселей
Соотношение сторон : 2,40:1
Частота кадров : 23,976 (24000/1001) кадра/сек
Цветовое пространство : YUV
Субдискретизация насыщенности : 4:2:0
Битовая глубина : 8 бит
Тип развёртки : Прогрессивная
Метод сжатия : С потерями
Бит/(Пиксели*Кадры) : 0.316
Размер потока : 1,16 Гбайт (80%)
Библиотека кодирования : XviD 73

Аудио
Идентификатор : 1
Формат : AC-3
Формат/Информация : Audio Coding 3
Коммерческое название : Dolby Digital
Идентификатор кодека : 2000
Продолжительность : 1 ч. 48 м.
Вид битрейта : Постоянный
Битрейт : 384 Кбит/сек
Каналы : 6 каналов
ChannelLayout : L R C LFE Ls Rs
Частота : 48,0 КГц
Частота кадров : 31,250 кадров/сек (1536 SPF)
Битовая глубина : 16 бит
Метод сжатия : С потерями
Размер потока : 297 Мбайт (20%)
Выравнивание : Разделение по промежуткам
Продолжительность промежутка : 42 мс. (1,00 видеокадр)
Время предзагрузки промежутка : 500 мс.
Язык : Русский

pb.wtf



Скачать Заповедник через торрент https://i2.imageban.ru/out/2019/04/30/2e5d989da07a8136af79047e4961d488.jpg Скачать фильм Заповедник через торрент бесплантно в хорошем качестве Описание: Константин, автор песен и виртуозный гитарист, сбегает от накопившихся проблем в заповедник «Михайловское». Костя давно лишился ... 9.1 10 13
Торрент: Зарегистрирован [2019-04-30 16:50] · скачан: 469 раз
Статус: √ проверено
Размер: 1.46 GB
Как cкачать? Как скачать Заповедник через торрент | qTorrent

% Раздел Тема Автор DL S | L
Политика, религия [ 1.09 GB ] Русский заповедник [2008 документальный православный фильм DVDRip] -Lexx- Скачать
1 | 0
Документальные фильмы и телепередачи [ 338 MB ] Заповедная Россия [2013 Документальный HDTVRipОригинал] Бумер Скачать
1 | 0
Документальные фильмы и телепередачи [ 339 MB ] Заповедная Россия [2012 Документальный HDTVRipОригинал] Бумер Скачать
1 | 0
Документальные фильмы и телепередачи [ 324 MB ] Заповедная Россия [2012 Документальный HDTVRipОригинал] Бумер Скачать
1 | 0
T Фильмы 2014 (Звук TS, Cam, VO, DVO) [ 1.38 GB ] Заповедник / Preservation [2014 WEB-DLRip Любительский двухголосый [HamsterStudio] Ворон Скачать
1 | 0
T Фильмы 2014 (Звук TS, Cam, VO, DVO) [ 1.38 GB ] Заповедник / Preservation [2014 WEB-DLRip Любительский [Xixidok] Ворон Скачать
1 | 0
T Фильмы 2014 (Звук TS, Cam, VO, DVO) [ 738 MB ] Заповедник / Preservation [2014 HDRip Любительский [Xixidok] Ворон Скачать
1 | 0


>> Регистрируемся здесь <<






Отзывы и комментарии о схеме читаем и пишем здесь: ---> Отзывы и комментарии о схеме

Новые благодарочки в телеграм довольных пользователей:
скриншот   скриншот   скриншот   скриншот   скриншот

02-05-2019 10:50 Заповедник Скачать торрент  

Безруков пол фильма прокурил, и в прямом и переносном смысле. Сергей, играть нужно не только в театре.
Это не комедия, особенно в конце. Это мюзикл.
Собралась блестящая команда актеров, что бы тупо потратить время кинозрителя.
Небольшой зачет только Семчеву за сцену с осой.pb.wtf



    Дорогой пользователь! Огромная просьба, поблагодарите релизера, оцените раздачу и оставьте свои комментарий, если Вы скачали Заповедник через торрент бесплатно! Внесите свою лепту в развитие PiratBit!
    Комментировать посты могут только пользователи прошедшие не сложную регистрацию
    Показать сообщения:    

    Заповедник через торрент
    Скачать бесплатно Заповедник
    Заповедник скачать торрент
    Заповедник смотреть онлайн
    Cкачать фильм Заповедник бесплатно
    Заповедник скачать торрент в хорошем качестве
    Заповедник смотреть онлайн бесплатно в хорошем качестве


    Вы не можете начинать темы
    Вы не можете отвечать на сообщения
    Вы не можете редактировать свои сообщения
    Вы не можете удалять свои сообщения
    Вы не можете голосовать в опросах
    Вы не можете прикреплять файлы к сообщениям
    Вы можете скачивать файлы