Ссылка на приватное зеркало всего за 1$. Внимание количество ограничено!!!

OK

1+1

iTunes

мы

OK

1

WEB-DLRip

Джокер

Пифагор

Ведьмак / The Witcher сериал

iTunes

ПШазам

ОК

Оно 2

iTunes

30
pack

Вам бонус

ВАЖНО

!!Акция!!

Alien_RageХит недели

RePack

Resident Evil 21

ИГРА 18+

pack

RePack

jed

RePack

fifa19

RePack

Assassins Creed: Odyssey

RePack

NEED FOR SPEED™ PAYBACK

4 сезон

9 сезон

Бесстыжие 9 сезон

Все сериалы

все сериалы на PB.wtf

RePack

FAR CRY 5
  

Лабиринты прошлого / Todos lo saben / Everybody Knows (Асгар Фархади) [2018, триллер, драма, криминал, детектив, BDRip 720p] DUB [iTunes] pb.wtf

Лабиринты прошлого через торрент pb.wtf

Размер: 7.48 GB | Добавлен: 8 мес. назад | Торрент скачан:126 раз
Скачать  

01-05-2019 01:27 Лабиринты прошлого Скачать торрент  

Лабиринты прошлого / Todos lo saben / Everybody Knows Год выпуска: 2018
Страна: Испания, Франция, Италия
Жанр: триллер, драма, криминал, детектив
Продолжительность: 02:13:39
Перевод: Дублированный | iTunes
Субтитры: Английские

Режиссер: Асгар Фархади

rating

В ролях:

Пенелопа Крус (Laura), Хавьер Бардем (Paco), Рикардо Дарин (Alejandro), Эдуард Фернандес (Fernando), Барбара Ленни (Bea), Инма Куэста (Ana), Эльвира Мингес (Mariana), Рамон Бареа (Antonio), Карла Кампра (Irene), Сара Саламо (Rocío), Рохер Касамахор (Joan), Хосе Анхель Эхидо (Jorge)
Описание:

Испания, свадьба, друзья. Всего один день и неожиданное происшествие полностью меняет жизнь Лауры и Пако, некогда любивших друг друга. Им придется столкнуться лицом к лицу со своим прошлым, чтобы предотвратить непоправимое.

Качество: BDRip 720p
Формат: MKV

Видео: MPEG-4 AVC, 1280x690, 6981 Kbit/s, 23.976 fps
Аудио#1: 48 kHz, AC3, 5.1, 384 Kbps | iTunes | RUS |
Аудио#2: 48 kHz, AC3, 5.1, 640 Kbps | Оригинал | SPA |
скриншот  скриншот  скриншот  скриншот  скриншот  

General
Unique ID : 210834098414534102335487461742462134204 (0x9E9D2B9BA0BFA3C30573215B86A867BC)
Complete name : D:Video1111080Todos.lo.Saben.2018.BDRip.720p.seleZen.mkv
Format : Matroska
Format version : Version 4
File size : 7.48 GiB
Duration : 2 h 13 min
Overall bit rate : 8 008 kb/s
Movie name : Todos lo saben 2018 from селезень
Encoded date : UTC 2019-04-30 22:44:12
Writing application : mkvmerge v32.0.0 ('Astral Progressions') 64-bit
Writing library : libebml v1.3.7 + libmatroska v1.5.0

Video
ID : 1
Format : AVC
Format/Info : Advanced Video Codec
Format profile : High@L4.1
Format settings : CABAC / 9 Ref Frames
Format settings, CABAC : Yes
Format settings, Reference : 9 frames
Codec ID : V_MPEG4/ISO/AVC
Duration : 2 h 13 min
Bit rate : 6 981 kb/s
Width : 1 280 pixels
Height : 690 pixels
Display aspect ratio : 1.85:1
Frame rate mode : Constant
Frame rate : 23.976 (24000/1001) FPS
Color space : YUV
Chroma subsampling : 4:2:0
Bit depth : 8 bits
Scan type : Progressive
Bits/(Pixel*Frame) : 0.330
Stream size : 6.52 GiB (87%)
Title : SPEED
Writing library : x264 core 157 r2867+103 0d6443f t_mod_Custom_2 [8-bit@all X86_64]
Encoding settings : cabac=1 / ref=9 / deblock=1:-3:-3 / analyse=0x3:0x133 / me=umh / subme=10 / psy=1 / fade_compensate=0.00 / psy_rd=1.03:0.00 / mixed_ref=1 / me_range=32 / chroma_me=1 / trellis=2 / 8x8dct=1 / cqm=0 / deadzone=21,11 / fast_pskip=0 / chroma_qp_offset=-2 / threads=12 / lookahead_threads=2 / sliced_threads=0 / nr=0 / decimate=0 / interlaced=0 / bluray_compat=0 / constrained_intra=0 / fgo=0 / bframes=9 / b_pyramid=2 / b_adapt=2 / b_bias=0 / direct=3 / weightb=1 / open_gop=0 / weightp=2 / keyint=250 / keyint_min=23 / scenecut=40 / intra_refresh=0 / rc=crf / mbtree=0 / crf=16.3000 / qcomp=0.60 / qpmin=0:0:0 / qpmax=69:69:69 / qpstep=4 / ip_ratio=1.35 / pb_ratio=1.25 / aq=3:0.85 / aq-sensitivity=10.00 / aq-factor=1.00:1.00:1.00 / aq2=0 / aq3=0 / zones=41406,41973,crf=15.1/43369,44845,crf=15/49403,51551,crf=15.1/51970,55031,crf=15.1/155774,158069,crf=15.3
Language : Spanish
Default : Yes
Forced : No

Audio #1
ID : 2
Format : AC-3
Format/Info : Audio Coding 3
Commercial name : Dolby Digital
Codec ID : A_AC3
Duration : 2 h 13 min
Bit rate mode : Constant
Bit rate : 384 kb/s
Channel(s) : 6 channels
Channel layout : L R C LFE Ls Rs
Sampling rate : 48.0 kHz
Frame rate : 31.250 FPS (1536 SPF)
Bit depth : 16 bits
Compression mode : Lossy
Stream size : 367 MiB (5%)
Title : iTunes
Language : Russian
Service kind : Complete Main
Default : Yes
Forced : Yes

Audio #2
ID : 3
Format : AC-3
Format/Info : Audio Coding 3
Commercial name : Dolby Digital
Codec ID : A_AC3
Duration : 2 h 13 min
Bit rate mode : Constant
Bit rate : 640 kb/s
Channel(s) : 6 channels
Channel layout : L R C LFE Ls Rs
Sampling rate : 48.0 kHz
Frame rate : 31.250 FPS (1536 SPF)
Bit depth : 16 bits
Compression mode : Lossy
Stream size : 612 MiB (8%)
Title : Original
Language : Spanish
Service kind : Complete Main
Default : No
Forced : No

Text
ID : 4
Format : UTF-8
Codec ID : S_TEXT/UTF8
Codec ID/Info : UTF-8 Plain Text
Duration : 2 h 5 min
Bit rate : 34 b/s
Count of elements : 1348
Stream size : 32.1 KiB (0%)
Title : Full
Language : English
Default : No
Forced : No

Menu
00:00:00.000 : :Chapter 1
00:09:34.365 : :Chapter 2
00:18:01.580 : :Chapter 3
00:22:43.112 : :Chapter 4
00:31:20.879 : :Chapter 5
00:39:42.964 : :Chapter 6
00:46:12.687 : :Chapter 7
00:51:41.598 : :Chapter 8
00:58:35.846 : :Chapter 9
01:06:25.648 : :Chapter 10
01:12:33.266 : :Chapter 11
01:19:43.237 : :Chapter 12
01:25:20.324 : :Chapter 13
01:28:53.119 : :Chapter 14
01:35:16.836 : :Chapter 15
01:41:09.772 : :Chapter 16
01:48:17.074 : :Chapter 17
01:54:32.783 : :Chapter 18
02:05:34.235 : :Chapter 19
02:09:25.091 : :Chapter 20

pb.wtf



Скачать Лабиринты прошлого через торрент http://img14.lostpic.net/2019/05/01/9bde90e3084bf5cd8c22e9430b6d1241.jpg Скачать фильм Лабиринты прошлого через торрент бесплантно в хорошем качестве Описание: Испания, свадьба, друзья. Всего один день и неожиданное происшествие полностью меняет жизнь Лауры и Пако, некогда любивших друг ... 10 10 2
Торрент: Зарегистрирован [2019-05-01 01:27] · скачан: 126 раз
Статус: √ проверено
Размер: 7.48 GB
Как cкачать? Как скачать Лабиринты прошлого через торрент | qTorrent

% Раздел Тема Автор DL S | L
Фильмы 2018 [DVDrip, WEB-DLRip, HDrip] (DUB, MVO) [ 1.46 GB ] Лабиринты прошлого / Todos lo saben / Everybody Knows [2018 BDRip] - Twi7ter Скачать
18 | 1
Фильмы 2018 [DVDrip, WEB-DLRip, HDrip] (DUB, MVO) [ 2.12 GB ] Лабиринты прошлого / Todos lo saben / Everybody Knows [2018 BDRip] - Twi7ter Скачать
13 | 1
Фильмы [HD 720p, 1080p] (Хороший звук DUB, MVO) [ 15.94 GB ] Лабиринты прошлого / Todos lo saben / Everybody Knows [2018 BDRip 1080p] bober100 Скачать
1 | 0
Фильмы (Blu-ray, BD-Remux, HDDVD) [ 37.34 GB ] Лабиринты прошлого / Todos lo saben / Everybody Knows [2018 BD Remux 1080p] bober100 Скачать
1 | 0

28-11-2019 20:33  

Отключить всю рекламу на сайте

    Дорогой пользователь! Огромная просьба, поблагодарите релизера, оцените раздачу и оставьте свои комментарий, если Вы скачали Лабиринты прошлого через торрент бесплатно! Внесите свою лепту в развитие PiratBit!
    Комментировать посты могут только пользователи прошедшие не сложную регистрацию
    Показать сообщения:    

    Лабиринты прошлого через торрент
    Скачать бесплатно Лабиринты прошлого
    Лабиринты прошлого скачать торрент
    Лабиринты прошлого смотреть онлайн
    Cкачать фильм Лабиринты прошлого бесплатно
    Лабиринты прошлого скачать торрент в хорошем качестве
    Лабиринты прошлого смотреть онлайн бесплатно в хорошем качестве


    Вы не можете начинать темы
    Вы не можете отвечать на сообщения
    Вы не можете редактировать свои сообщения
    Вы не можете удалять свои сообщения
    Вы не можете голосовать в опросах
    Вы не можете прикреплять файлы к сообщениям
    Вы можете скачивать файлы