Ссылка на приватное зеркало нашего сайта всего за 1$. Внимание количество ограничено!!!

2 сезон

iTunes

1 сезон

1

2 сезон

2 сезон

iTunes

1 сезон

RePack

30

Ultimate

ВАЖНО

ИГРА 18+

pack

RePack

MK11
pack

Забери бонус

RePack

jed

!!Акция!!

Alien_Rage

RePack

fifa19

RePack

Assassins Creed: Odyssey

RePack

NEED FOR SPEED™ PAYBACK

4 сезон

9 сезон

Бесстыжие 9 сезон

Все сериалы

все сериалы на PB.wtf

RePack

FAR CRY 5
  

Товарищ Милиционер / Товарищ Детектив / Comrade Detective / Сезон: 1 / Серии: 1-6 из 6 (Риз Томас) [2017, боевик, триллер, драма, криминал, WEBRip 720p] MVO [TVShows] pb.wtf

Товарищ Милиционер через торрент pb.wtf

Размер: 10.03 GB | Добавлен: 1 год 6 мес. назад | Торрент скачан:11 раз
Скачать  

01-05-2019 02:19 Товарищ Милиционер Скачать торрент  

Товарищ Милиционер / Товарищ Детектив / Comrade Detective
Год выпуска: 2017
Страна: США
Жанр: боевик, триллер, драма, криминал
Продолжительность: 6 x 00:46:00
Перевод: Профессиональный (многоголосый) | TVShows
Субтитры: Английские

Режиссер: Риз Томас

rating


В ролях:

Флорин Пьерсик мл., Корнелиу Улич, Оливия Нита, Флорин Галан, Диана Владу, Адриан Падурару и другие

Описание:

Ченнинг Татум и Джозеф Гордон-Левитт приняли участие в создании нового проекта Amazon - пародийной полицейской комедии «Товарищ детектив». Звёзды выступили не только в качестве продюсеров, но и как актёры дубляжа: сам сериал задуман как утраченный после падения Берлинской стены «шедевр» румынской кинематографии времён Холодной войны, созданный некогда правительством для продвижения коммунистических идеалов.

По сюжету, кассету с сериалом удаётся обнаружить в Штатах, и голливудские актёры, среди которых не только Ченнинг Татум и Джозеф Гордон-Левитт, но и Клоэ Севиньи, Ким Бейсингер, Махершала Али и многие другие, озвучивают персонажей (которые, разумеется, говорят по-румынски) для того, чтобы выпустить сериал на американском телевидении. Главные роли, кстати, исполнили настоящие румыны - Флорин Пирсич-младший и Корнелиу Улиси. Их персонажи, детективы Грегор Ангел и Йозеф Бачу, вынуждены приступить к расследованию убийства своего коллеги Никиты Ионеско, но запутанное дело приводит их к раскрытию коварного плана по уничтожению Румынии капиталистами.

Качество: WEBRip 720p
Формат: MKV

Видео: 1280x720 (16:9), 23.976 fps, MPEG-4 AVC ~4 800 kbps avg
Аудио#1: 48.0 kHz, AC3 Dolby Digital, 3/2 (L,C,R,l,r) + LFE ch, ~384 kbps | RUS / MVO
Аудио#2: 48.0 kHz, Enhanced Audio Coding 3, 3/2 (L,C,R,l,r) + LFE ch, ~640 kbps | ENG
скриншот  скриншот  скриншот  

Общее
Уникальный идентификатор : 236194458674319033289540378285170051290 (0xB1B165E7A5EDFFBA643FB8628D6948DA)
Полное имя : C:\Comrade.Detective.S01.720p.TVShows\Comrade.Detective.S01E01.720p.TVShows.mkv
Формат : Matroska
Версия формата : Version 4 / Version 2
Размер файла : 1,81 Гбайт
Продолжительность : 43 м. 42 с.
Общий поток : 5914 Кбит/сек
Дата кодирования : UTC 2018-11-15 10:36:35
Программа кодирования : mkvmerge v28.2.0 ('The Awakening') 64-bit
Библиотека кодирования : libebml v1.3.6 + libmatroska v1.4.9

Видео
Идентификатор : 1
Формат : AVC
Формат/Информация : Advanced Video Codec
Профиль формата : High@L4.1
Параметр CABAC формата : Да
Параметр RefFrames формата : 5 кадров
Идентификатор кодека : V_MPEG4/ISO/AVC
Продолжительность : 43 м. 42 с.
Битрейт : 4872 Кбит/сек
Ширина : 1280 пикселей
Высота : 720 пикселей
Соотношение сторон : 16:9
Режим частоты кадров : Постоянный
Частота кадров : 23,976 (24000/1001) кадра/сек
Цветовое пространство : YUV
Субдискретизация насыщенности : 4:2:0
Битовая глубина : 8 бит
Тип развёртки : Прогрессивная
Бит/(Пиксели*Кадры) : 0.216
Размер потока : 1,46 Гбайт (81%)
Библиотека кодирования : x264 core 152 r2851 ba24899
Настройки программы : cabac=1 / ref=5 / deblock=1:-3:-3 / analyse=0x3:0x113 / me=umh / subme=9 / psy=1 / psy_rd=1.00:0.15 / mixed_ref=1 / me_range=32 / chroma_me=1 / trellis=2 / 8x8dct=1 / cqm=0 / deadzone=21,11 / fast_pskip=0 / chroma_qp_offset=-2 / threads=12 / lookahead_threads=1 / sliced_threads=0 / nr=0 / decimate=1 / interlaced=0 / bluray_compat=0 / constrained_intra=0 / bframes=3 / b_pyramid=2 / b_adapt=1 / b_bias=0 / direct=3 / weightb=1 / open_gop=0 / weightp=2 / keyint=240 / keyint_min=23 / scenecut=40 / intra_refresh=0 / rc_lookahead=50 / rc=crf / mbtree=1 / crf=18.0 / qcomp=0.60 / qpmin=0 / qpmax=69 / qpstep=4 / ip_ratio=1.40 / aq=3:0.80
Язык : English
Default : Да
Forced : Нет

Аудио #1
Идентификатор : 2
Формат : AC-3
Формат/Информация : Audio Coding 3
Расширение режима : CM (complete main)
Параметр Endianness формата : Big
Идентификатор кодека : A_AC3
Продолжительность : 43 м. 42 с.
Вид битрейта : Постоянный
Битрейт : 384 Кбит/сек
Каналы : 6 каналов
Расположение каналов : Front: L C R, Side: L R, LFE
Частота : 48,0 КГц
Частота кадров : 31,250 кадров/сек (1536 spf)
Метод сжатия : С потерями
Размер потока : 120 Мбайт (6%)
Заголовок : TVShows
Язык : Russian
Default : Да
Forced : Да

Аудио #2
Идентификатор : 3
Формат : E-AC-3
Формат/Информация : Audio Coding 3
Параметр Endianness формата : Big
Идентификатор кодека : A_EAC3
Продолжительность : 43 м. 42 с.
Вид битрейта : Постоянный
Битрейт : 640 Кбит/сек
Каналы : 6 каналов
Расположение каналов : Front: L C R, Side: L R, LFE
Частота : 48,0 КГц
Частота кадров : 187,500 кадров/сек (256 spf)
Метод сжатия : С потерями
Размер потока : 200 Мбайт (11%)
Заголовок : Original
Язык : English
Default : Нет
Forced : Нет

Текст
Идентификатор : 4
Формат : UTF-8
Идентификатор кодека : S_TEXT/UTF8
Идентификатор кодека/Информация : UTF-8 Plain Text
Заголовок : English
Язык : English
Default : Нет
Forced : Нет

pb.wtf



Скачать Товарищ Милиционер через торрент http://a.radikal.ru/a08/1904/58/ef05cc9c4d83.png Скачать фильм Товарищ Милиционер через торрент бесплантно в хорошем качестве Описание: Ченнинг Татум и Джозеф Гордон-Левитт приняли участие в создании нового проекта Amazon - пародийной полицейской комедии «Товарищ ... 7 10 3
Торрент: Зарегистрирован [2019-05-01 02:19] · скачан: 11 раз
Статус: √ проверено
Размер: 10.03 GB
Как cкачать? Как скачать Товарищ Милиционер через торрент | qTorrent

% Раздел Тема Автор DL S | L
Зарубежные сериалы [ 24.79 GB ] Товарищ Милиционер / Товарищ / Comrade Detective / Сезон: 1 / Серии: 1-6 из 6 [2017 WEBRip 1080p] MVO [TVShows] bober100 Скачать
1 | 0
Зарубежные сериалы [ 2.88 GB ] Товарищ Милиционер / Товарищ / Comrade Detective / Сезон 1 / Серии 1-6 из 6 [2017 WEBRip] [VO] killermax2013 Скачать
1 | 0
Зарубежные сериалы [ 24.18 GB ] Товарищ Милиционер / Товарищ / Comrade Detective / Сезон 1 / Серии 1-6 из 6 [2017 WEBRip 1080p] MVO [студия Good People] bober100 Скачать
1 | 0

28-11-2019 20:33  

Отключить всю рекламу на сайте

    Дорогой пользователь! Огромная просьба, поблагодарите релизера, оцените раздачу и оставьте свои комментарий, если Вы скачали Товарищ Милиционер через торрент бесплатно! Внесите свою лепту в развитие PiratBit!
    Комментировать посты могут только пользователи прошедшие не сложную регистрацию
    Показать сообщения:    

    Товарищ Милиционер через торрент
    Скачать бесплатно Товарищ Милиционер
    Товарищ Милиционер скачать торрент
    Товарищ Милиционер смотреть онлайн
    Cкачать фильм Товарищ Милиционер бесплатно
    Товарищ Милиционер скачать торрент в хорошем качестве
    Товарищ Милиционер смотреть онлайн бесплатно в хорошем качестве


    Вы не можете начинать темы
    Вы не можете отвечать на сообщения
    Вы не можете редактировать свои сообщения
    Вы не можете удалять свои сообщения
    Вы не можете голосовать в опросах
    Вы не можете прикреплять файлы к сообщениям
    Вы можете скачивать файлы