Ссылка на приватное зеркало всего за 1$. Внимание количество ограничено!!!

iTunes

iTunes

iTunes

1

iTunes

iTunes

iTunes

WEBRip

iTunes

30
pack

$ от Little Big

ВАЖНО

!!Акция!!

Alien_RageХит недели

RePack

Resident Evil 21

ИГРА 18+

pack

RePack

jed

!!Акция!!

Alien_Rage

RePack

fifa19

RePack

Assassins Creed: Odyssey

RePack

NEED FOR SPEED™ PAYBACK

4 сезон

9 сезон

Бесстыжие 9 сезон

Все сериалы

все сериалы на PB.wtf

RePack

FAR CRY 5
  

В ожидании чуда / Waiting for the Miracle to Come (Лиан Лунзон) [2017, фэнтези, драма, WEB-DL 720p] MVO ["Синема УС"] pb.wtf

В ожидании чуда через торрент pb.wtf

Размер: 2.98 GB | Добавлен: 1 год 3 мес. назад | Торрент скачан:10 раз
Скачать  

01-05-2019 06:10 В ожидании чуда Скачать торрент  

В ожидании чуда / Waiting for the Miracle to ComeГод выпуска: 2017
Страна: США
Жанр: фэнтези, драма
Продолжительность: 01:36:03
Перевод: Любительский (многоголосый) | "Синема УС"
Субтитры: отсутствуют

Режиссер: Лиан Лунзон

rating

В ролях: Шарлотта Рэмплинг, Софи Лоу, Уилли Нельсон, Уэйлон Пэйн, Сонни Карл Дэвис, Дэймон Карни, Тодд Терри, Гари Тиг, Ричард Диллард, Эрвин Рафаэль МакМанус

Описание: После смерти отца, Аделин находит таинственное письмо в банковской ячейке, которую он завещал ей. В этом письме он просит её отправиться в маленький калифорнийский городок и найти Джимми и Дикси Риггз - актёров водевиля на пенсии, которые должны указать ей путь к "золотой жиле".

Качество: WEB-DL 720p
Формат: MKV
Видео: 5238 Кбит/с, 1280x720
Аудио#1: Русский, (AC3, 2 ch, 384 Кбит/с)
скриншот  скриншот  скриншот  

Общее
Уникальный идентификатор : 242264106925304817318021949723036026000 (0xB6425EAB1105D5349153FB7D87530490)
Полное имя : D:\Waiting.For.The.Miracle.To.Come.2018.P.WEB-DL.72Op.mkv
Формат : Matroska
Версия формата : Version 2
Размер файла : 2,98 Гбайт
Продолжительность : 1 ч. 15 м.
Режим общего битрейта : Переменный
Общий поток : 5624 Кбит/сек
Дата кодирования : UTC 2019-04-30 04:10:22
Программа кодирования : mkvmerge v8.3.0 ('Over the Horizon') 64bit
Библиотека кодирования : libebml v1.3.1 + libmatroska v1.4.2

Видео
Идентификатор : 1
Формат : AVC
Формат/Информация : Advanced Video Codec
Профиль формата : High@L4.1
Параметр CABAC формата : Да
Параметр RefFrames формата : 4 кадра
Идентификатор кодека : V_MPEG4/ISO/AVC
Продолжительность : 1 ч. 15 м.
Вид битрейта : Переменный
Битрейт : 5238 Кбит/сек
Максимальный битрейт : 6000 Кбит/сек
Ширина : 1280 пикселей
Высота : 720 пикселей
Соотношение сторон : 16:9
Режим частоты кадров : Постоянный
Частота кадров : 23,976 (24000/1001) кадра/сек
Стандарт вещания : Component
Цветовое пространство : YUV
Субдискретизация насыщенности : 4:2:0
Битовая глубина : 8 бит
Тип развёртки : Прогрессивная
Бит/(Пиксели*Кадры) : 0.232
Размер потока : 2,71 Гбайт (91%)
Default : Да
Forced : Нет
Цветовой диапазон : Limited
Основные цвета : BT.709
Характеристики трансфера : BT.709
Коэффициенты матрицы : BT.709

Аудио
Идентификатор : 2
Формат : AC-3
Формат/Информация : Audio Coding 3
Расширение режима : CM (complete main)
Параметр Endianness формата : Big
Идентификатор кодека : A_AC3
Продолжительность : 1 ч. 15 м.
Вид битрейта : Постоянный
Битрейт : 384 Кбит/сек
Каналы : 2 канала
Расположение каналов : Front: L R
Частота : 48,0 КГц
Частота кадров : 31,250 кадров/сек (1536 spf)
Метод сжатия : С потерями
Размер потока : 208 Мбайт (7%)
Default : Да
Forced : Нет

pb.wtf



Скачать В ожидании чуда через торрент https://c.radikal.ru/c10/1905/92/b031b7dd0cf6.jpg Скачать фильм В ожидании чуда через торрент бесплантно в хорошем качестве Описание: После смерти отца, Аделин находит таинственное письмо в банковской ячейке, которую он завещал ей. В этом письме он просит её ... 10 10 2
Торрент: Зарегистрирован [2019-05-01 06:10] · скачан: 10 раз
Статус: T временная
Размер: 2.98 GB
Как cкачать? Как скачать В ожидании чуда через торрент | qTorrent

% Раздел Тема Автор DL S | L
T Фильмы (мультфильмы) cо спонсором показа (Новинки AVI/MKV) [ 1.37 GB ] В ожидании чуда / Waiting for the Miracle to Come [2017 WEB-DLRip] MVO ["Синема УС"] bober100 Скачать
1 | 0

28-11-2019 20:33  

Отключить всю рекламу на сайте

    Дорогой пользователь! Огромная просьба, поблагодарите релизера, оцените раздачу и оставьте свои комментарий, если Вы скачали В ожидании чуда через торрент бесплатно! Внесите свою лепту в развитие PiratBit!
    Комментировать посты могут только пользователи прошедшие не сложную регистрацию
    Показать сообщения:    

    В ожидании чуда через торрент
    Скачать бесплатно В ожидании чуда
    В ожидании чуда скачать торрент
    В ожидании чуда смотреть онлайн
    Cкачать фильм В ожидании чуда бесплатно
    В ожидании чуда скачать торрент в хорошем качестве
    В ожидании чуда смотреть онлайн бесплатно в хорошем качестве


    Вы не можете начинать темы
    Вы не можете отвечать на сообщения
    Вы не можете редактировать свои сообщения
    Вы не можете удалять свои сообщения
    Вы не можете голосовать в опросах
    Вы не можете прикреплять файлы к сообщениям
    Вы можете скачивать файлы