Ссылка на приватное зеркало всего за 1$. Внимание количество ограничено!!!

OK

1+1

iTunes

мы

OK

1

WEB-DLRip

Джокер

Пифагор

Ведьмак / The Witcher сериал

Лицензия

ПШазам

ОК

Оно 2

iTunes

30
pack

Вам бонус

ВАЖНО

!!Акция!!

Alien_RageХит недели

RePack

Resident Evil 21

ИГРА 18+

pack

RePack

jed

!!Акция!!

Alien_Rage

RePack

fifa19

RePack

Assassins Creed: Odyssey

RePack

NEED FOR SPEED™ PAYBACK

4 сезон

9 сезон

Бесстыжие 9 сезон

Все сериалы

все сериалы на PB.wtf

RePack

FAR CRY 5
  

Другой / The Hole in the Ground (Ли Кронин) [2019, Ужасы, BDRip 720p] DUB [iTunes] pb.wtf

Другой через торрент pb.wtf

Размер: 4.61 GB | Добавлен: 4 мес. 22 д. назад | Торрент скачан:56 раз
Скачать  

01-05-2019 06:30 Другой Скачать торрент  

Другой / The Hole in the Ground Год выпуска: 2019
Страна: Ирландия
Жанр: Ужасы
Продолжительность: 01:30:36
Перевод: Дублированный | iTunes
Субтитры: отсутствуют

Режиссер: Ли Кронин

rating

В ролях: Шана Керслэйк, Джеймс Куинн Марки, Симона Кирби, Стив Уолл, Оуэн Мэкен, Сара Хэнли, Джеймс Космо, Кати Оутинен, Беннетт Эндрю, Дэвид Краули

Описание: Молодая женщина Сара переезжает с сыном Крисом в дом на окраине небольшого городка. Однажды мальчик убегает из дома, и мать находит его посреди леса рядом с гигантской дырой неизвестного происхождения. А после встречи с местной сумасшедшей, по слухам много лет назад убившей собственного сына, Сара начинает сомневаться - кажется ли ей, что Крис ведёт себя странно, или на самом деле с её ребёнком творится что-то неладное.

Качество: BDRip 720p
Формат: MKV

Видео: MPEG-4 AVC, 6137 Kбит/с, 1280x536
Аудио: Русский, (AC3, 6 ch, 384 Кбит/с)
Аудио: английский (DTS, 6 ch, 768 Кбит/с)
скриншот  скриншот  скриншот  скриншот  

Общее
Уникальный идентификатор : 241911611750282582783560593601588738399 (0xB5FE7B5075F8F44484947D2DFAA9B95F)
Полное имя : Drugoy.2019.BDRip.720p.ELEKTRI4KA.UNIONGANG.mkv
Формат : Matroska
Версия формата : Version 4
Размер файла : 4,61 Гбайт
Продолжительность : 1 ч. 30 м.
Общий поток : 7289 Кбит/сек
Дата кодирования : UTC 2019-08-29 08:06:49
Программа кодирования : mkvmerge v8.3.0 ('Over the Horizon') 64bit
Библиотека кодирования : libebml v1.3.1 + libmatroska v1.4.2

Видео
Идентификатор : 1
Формат : AVC
Формат/Информация : Advanced Video Codec
Профиль формата : High@L4.1
Настройки формата : CABAC / 12 Ref Frames
Параметр CABAC формата : Да
Параметр RefFrames формата : 12 кадров
Идентификатор кодека : V_MPEG4/ISO/AVC
Продолжительность : 1 ч. 30 м.
Битрейт : 6137 Кбит/сек
Ширина : 1280 пикселей
Высота : 536 пикселей
Соотношение сторон : 2,40:1
Режим частоты кадров : Постоянный
Частота кадров : 23,976 (24000/1001) кадра/сек
Цветовое пространство : YUV
Субдискретизация насыщенности : 4:2:0
Битовая глубина : 8 бит
Тип развёртки : Прогрессивная
Бит/(Пиксели*Кадры) : 0.373
Размер потока : 3,88 Гбайт (84%)
Библиотека кодирования : x264 core 157 r2969 d4099dd
Настройки программы : cabac=1 / ref=12 / deblock=1:-3:-3 / analyse=0x3:0x133 / me=umh / subme=9 / psy=1 / psy_rd=1.00:0.00 / mixed_ref=1 / me_range=24 / chroma_me=1 / trellis=1 / 8x8dct=1 / cqm=0 / deadzone=21,11 / fast_pskip=0 / chroma_qp_offset=-2 / threads=17 / lookahead_threads=2 / sliced_threads=0 / nr=0 / decimate=1 / interlaced=0 / bluray_compat=0 / constrained_intra=0 / bframes=8 / b_pyramid=2 / b_adapt=2 / b_bias=0 / direct=3 / weightb=1 / open_gop=0 / weightp=2 / keyint=250 / keyint_min=23 / scenecut=40 / intra_refresh=0 / rc_lookahead=60 / rc=2pass / mbtree=1 / bitrate=6137 / ratetol=1.0 / qcomp=0.60 / qpmin=0 / qpmax=69 / qpstep=4 / cplxblur=20.0 / qblur=0.5 / vbv_maxrate=62500 / vbv_bufsize=78125 / nal_hrd=none / filler=0 / ip_ratio=1.40 / aq=1:1.00
Язык : English
Default : Да
Forced : Нет

Аудио #1
Идентификатор : 2
Формат : AC-3
Формат/Информация : Audio Coding 3
Коммерческое название : Dolby Digital
Идентификатор кодека : A_AC3
Продолжительность : 1 ч. 30 м.
Вид битрейта : Постоянный
Битрейт : 384 Кбит/сек
Каналы : 6 каналов
Channel layout : L R C LFE Ls Rs
Частота : 48,0 КГц
Частота кадров : 31,250 кадров/сек (1536 SPF)
Битовая глубина : 16 бит
Метод сжатия : С потерями
Размер потока : 249 Мбайт (5%)
Заголовок : iTunes
Язык : Russian
ServiceKind/String : Complete Main
Default : Да
Forced : Нет

Аудио #2
Идентификатор : 3
Формат : DTS
Формат/Информация : Digital Theater Systems
Идентификатор кодека : A_DTS
Продолжительность : 1 ч. 30 м.
Вид битрейта : Постоянный
Битрейт : 768 Кбит/сек
Каналы : 6 каналов
Channel layout : C L R Ls Rs LFE
Частота : 48,0 КГц
Частота кадров : 93,750 кадра/сек (512 SPF)
Битовая глубина : 24 бит
Метод сжатия : С потерями
Размер потока : 498 Мбайт (11%)
Язык : English
Default : Нет
Forced : Нет

Меню
00:00:00.000 : en:Chapter 01
00:06:27.012 : en:Chapter 02
00:14:09.348 : en:Chapter 03
00:22:52.705 : en:Chapter 04
00:32:06.550 : en:Chapter 05
00:40:21.252 : en:Chapter 06
00:48:36.455 : en:Chapter 07
00:55:29.034 : en:Chapter 08
01:02:39.589 : en:Chapter 09
01:09:45.014 : en:Chapter 10
01:16:55.611 : en:Chapter 11
01:22:36.285 : en:Chapter 12

pb.wtf



Скачать Другой через торрент https://i86.fastpic.ru/big/2019/0730/a2/da979ca7943f514c41d73e6abb4f54a2.png Скачать фильм Другой через торрент бесплантно в хорошем качестве Описание: Молодая женщина Сара переезжает с сыном Крисом в дом на окраине небольшого городка. Однажды мальчик убегает из дома, и мать ... 10 10 5
Торрент: Зарегистрирован [2019-08-30 00:11] · скачан: 56 раз
Статус: √ проверено
Размер: 4.61 GB
Как cкачать? Как скачать Другой через торрент | qTorrent

% Раздел Тема Автор DL S | L
Фильмы 2019-2020 [DVDrip, WEB-DLRip, HDrip] (DUB, MVO) [ 1.41 GB ] Другой / The Hole in the Ground [2019 BDRip] - Twi7ter Скачать
24 | 3
Фильмы 2018 [DVDrip, WEB-DLRip, HDrip] (DUB, MVO) [ 1.42 GB ] Другой / The Hole in the Ground [2018 BDRip-AVC ] Dub - ExKinoRay Enigma2010 Скачать
9 | 0
Фильмы 2018 [DVDrip, WEB-DLRip, HDrip] (DUB, MVO) [ 1.54 GB ] Другой / The Hole in the Ground [2018 BDRip-AVC] [MVO] [HDRezka Studio] AVO [BadBajo] - ExKinoRay Enigma2010 Скачать
5 | 0
Фильмы [HD 720p, 1080p] (Хороший звук DUB, MVO) [ 6.92 GB ] Другой / The Hole in the Ground [2019 BDRip 1080p] MVO [HDRezka Studio] +AVO [Важенин ] bober100 Скачать
1 | 0
Фильмы [HD 720p, 1080p] (Хороший звук DUB, MVO) [ 6.79 GB ] Другой / The Hole in the Ground [2019 BDRip 1080p] bober100 Скачать
2 | 0
Фильмы 2019-2020 [DVDrip, WEB-DLRip, HDrip] (DUB, MVO) [ 1.44 GB ] Другой / The Hole in the Ground [2019 BDRip] bober100 Скачать
3 | 0
T Фильмы 2018 [DVDrip, WEB-DLRip, HDrip] (DUB, MVO) [ 1.33 GB ] Другой / The Hole in the Ground [2018 WEB-DLRip-AVC] [MVO] [HDRezka Studio] - ExKinoRay Enigma2010 Скачать
5 | 0

28-11-2019 20:33  

Отключить всю рекламу на сайте

    Дорогой пользователь! Огромная просьба, поблагодарите релизера, оцените раздачу и оставьте свои комментарий, если Вы скачали Другой через торрент бесплатно! Внесите свою лепту в развитие PiratBit!
    Комментировать посты могут только пользователи прошедшие не сложную регистрацию
    Показать сообщения:    

    Другой через торрент
    Скачать бесплатно Другой
    Другой скачать торрент
    Другой смотреть онлайн
    Cкачать фильм Другой бесплатно
    Другой скачать торрент в хорошем качестве
    Другой смотреть онлайн бесплатно в хорошем качестве


    Вы не можете начинать темы
    Вы не можете отвечать на сообщения
    Вы не можете редактировать свои сообщения
    Вы не можете удалять свои сообщения
    Вы не можете голосовать в опросах
    Вы не можете прикреплять файлы к сообщениям
    Вы можете скачивать файлы