2 сезон

iTunes

MVO

1

2 сезон

iTunes

iTunes

1 сезон

RePack

30

Ultimate

ВАЖНО

ИГРА 18+

pack

RePack

MK11
pack

Легкие деньги

RePack

jed

RePack

fifa19

RePack

RDR2

RePack

NEED FOR SPEED™ PAYBACK

4 сезон

9 сезон

Бесстыжие 9 сезон

Все сериалы

все сериалы на PB.wtf

RePack

FAR CRY 5

Anonymous, добрый день, мы не успеваем собрать деньги на оплату серверов за декабрь и январь, помогите нам пожалуйста в это трудное время. В качестве благодарности мы отключим Вам всю рекламу на сайте (укажите свой ник в строку Ваше имя)!

×
  
Magnet ссылка

Dan Balan feat. Lusia Chebotina - Balzam [2019 г., Pop, WEBRip 1080p] pb.wtf

Dan Balan feat. Lusia Chebotina - Balzam через торрент pb.wtf

Размер: 122 MB | Добавлен: 1 год 8 мес. назад | Торрент скачан:58 раз
Скачать  

01-05-2019 07:25 Dan Balan feat. Lusia Chebotina - Balzam Скачать торрент  

Dan Balan feat. Lusia Chebotina - Balzam
Год выпуска: 2019
Страна: Россия
Жанр: Pop
Продолжительность: 00:03:37

В ролях: Dan Balan

Описание: Клип Dan Balan на песню Balzam

Качество: WEBRip 1080p
Формат: MP4
Видео кодек: AVC
Аудио кодек: AAC
Видео: AVC, 1920x1080 , 25.0fps, 4500 Kbps
Аудио#1: AAC , 2 ch , 44,1 kHz , 192 kbps
скриншот   скриншот   скриншот   скриншот  

Общее
Полное имя : D:Dan Balan feat. Lusia Chebotina - Balzam. by Аристократ.mp4
Формат : MPEG-4
Профиль формата : Base Media
Идентификатор кодека : isom
Размер файла : 122 Мбайт
Продолжительность : 3 м. 37 с.
Режим общего битрейта : Переменный
Общий поток : 4707 Кбит/сек
Программа кодирования : Lavf58.20.100

Видео
Идентификатор : 1
Формат : AVC
Формат/Информация : Advanced Video Codec
Профиль формата : High@L4.0
Параметр CABAC формата : Да
Параметр ReFrames формата : 2 кадра
Идентификатор кодека : avc1
Идентификатор кодека/Информация : Advanced Video Coding
Продолжительность : 3 м. 37 с.
Вид битрейта : Переменный
Битрейт : 4500 Кбит/сек
Ширина : 1920 пикселей
Высота : 1080 пикселей
Соотношение сторон : 16:9
Режим частоты кадров : Постоянный
Частота кадров : 25,000 кадров/сек
Цветовое пространство : YUV
Субдискретизация насыщенности : 4:2:0
Битовая глубина : 8 бит
Тип развёртки : Прогрессивная
Бит/(Пиксели*Кадры) : 0.087
Размер потока : 117 Мбайт (96%)

Аудио
Идентификатор : 2
Формат : AAC
Формат/Информация : Advanced Audio Codec
Профиль формата : LC
Идентификатор кодека : 40
Продолжительность : 3 м. 37 с.
Вид битрейта : Постоянный
Битрейт : 192 Кбит/сек
Каналы : 2 канала
Расположение каналов : Front: L R
Частота : 44,1 КГц
Метод сжатия : С потерями
Размер потока : 4,98 Мбайт (4%)

pb.wtf



Скачать Dan Balan feat. Lusia Chebotina - Balzam через торрент http://pic1.kartinco.top/images/12/ivs6n.jpg Скачать фильм Dan Balan feat. Lusia Chebotina - Balzam [2019 г., Pop, WEBRip 1080p]через торрент бесплантно в хорошем качестве Описание: Клип Dan Balan на песню ... 10 10 5
Торрент: Зарегистрирован [2019-05-01 07:25] · скачан: 58 раз
Статус: √ проверено
Размер: 122 MB
Как cкачать? Как скачать Dan Balan feat. Lusia Chebotina - Balzam через торрент | UTorrent

28-11-2019 20:33  

Отключить всю рекламу на сайте


    Дорогой пользователь! Огромная просьба, поблагодарите релизера, оцените раздачу и оставьте свои комментарий, если Вы скачали Dan Balan feat. Lusia Chebotina - Balzam через торрент бесплатно! Внесите свою лепту в развитие PiratBit!
    Комментировать посты могут только пользователи прошедшие не сложную регистрацию
    Показать сообщения:    

    Dan Balan feat. Lusia Chebotina - Balzam через торрент
    Скачать бесплатно Dan Balan feat. Lusia Chebotina - Balzam
    Dan Balan feat. Lusia Chebotina - Balzam скачать торрент
    Dan Balan feat. Lusia Chebotina - Balzam смотреть онлайн
    Cкачать фильм Dan Balan feat. Lusia Chebotina - Balzam бесплатно
    Dan Balan feat. Lusia Chebotina - Balzam скачать торрент в хорошем качестве
    Dan Balan feat. Lusia Chebotina - Balzam смотреть онлайн бесплатно в хорошем качестве


    Вы не можете начинать темы
    Вы не можете отвечать на сообщения
    Вы не можете редактировать свои сообщения
    Вы не можете удалять свои сообщения
    Вы не можете голосовать в опросах
    Вы не можете прикреплять файлы к сообщениям
    Вы можете скачивать файлы