Ссылка на приватное зеркало всего за 1$. Внимание количество ограничено!!!

OK

1+1

iTunes

мы

OK

1

WEB-DLRip

Джокер

Пифагор

Ведьмак / The Witcher сериал

iTunes

ПШазам

ОК

Оно 2

iTunes

30
pack

Вам бонус

ВАЖНО

!!Акция!!

Alien_RageХит недели

RePack

Resident Evil 21

ИГРА 18+

pack

RePack

jed

RePack

fifa19

RePack

Assassins Creed: Odyssey

RePack

NEED FOR SPEED™ PAYBACK

4 сезон

9 сезон

Бесстыжие 9 сезон

Все сериалы

все сериалы на PB.wtf

RePack

FAR CRY 5
  

Ни траура, ни похорон / Outlaws Don't Get Funerals (Грег Дерасмо) [2019, Боевик, триллер, драма, криминал, вестерн, WEB-DL 720p] MVO ["Синема УС"] pb.wtf

Ни траура, ни похорон через торрент pb.wtf

Размер: 4.03 GB | Добавлен: 8 мес. назад | Торрент скачан:107 раз
Скачать  

01-05-2019 07:47 Ни траура, ни похорон Скачать торрент  

Ни траура, ни похорон / Outlaws Don't Get Funerals Год выпуска: 2019
Страна: США
Жанр: Боевик, триллер, драма, криминал, вестерн
Продолжительность: 01:40:39
Перевод: Любительский (многоголосый) | "Синема УС"
Субтитры: отсутствуют

Режиссер: Грег Дерасмо

rating

В ролях:

Роберт Пайк Дэниэл, Джастин Тейт, Риа Мейерс, Кип Гилмен, Эллен Хамфрис, Эрик Хоффстад, Джей Хэрик, Зандер Робертс, Джаррет Палмер, Фарид Зариф

Описание:

Отъявленный преступник объединяется со своим недавно вышедшим из тюрьмы дедушкой, чтобы сорвать большой куш, однако на их пути встает безжалостный убийца.

Качество: WEB-DL 720p
Формат: MKV

Видео: h.264, 5 348 Кбит/с, 1280x544
Аудио: Русский, (AC3, 2 ch, 384 Кбит/с)
скриншот  скриншот  скриншот  

Общее
Уникальный идентификатор : 171777629753207696123489221475434725871 (0x813B2B080FB588C2A24053828AD381EF)
Полное имя : D:\OutlawsDontGetFunerals.2O19.P.WEB_DL.72Op.mkv
Формат : Matroska
Версия формата : Version 2
Размер файла : 4,03 Гбайт
Продолжительность : 1 ч. 40 м.
Режим общего битрейта : Переменный
Общий поток : 5734 Кбит/сек
Дата кодирования : UTC 2019-04-29 06:49:22
Программа кодирования : mkvmerge v8.3.0 ('Over the Horizon') 64bit
Библиотека кодирования : libebml v1.3.1 + libmatroska v1.4.2

Видео
Идентификатор : 1
Формат : AVC
Формат/Информация : Advanced Video Codec
Профиль формата : High@L4.1
Параметр CABAC формата : Да
Параметр RefFrames формата : 4 кадра
Идентификатор кодека : V_MPEG4/ISO/AVC
Продолжительность : 1 ч. 40 м.
Вид битрейта : Переменный
Битрейт : 5348 Кбит/сек
Максимальный битрейт : 6000 Кбит/сек
Ширина : 1280 пикселей
Высота : 544 пикселя
Соотношение сторон : 2,35:1
Режим частоты кадров : Постоянный
Частота кадров : 23,976 (24000/1001) кадра/сек
Стандарт вещания : Component
Цветовое пространство : YUV
Субдискретизация насыщенности : 4:2:0
Битовая глубина : 8 бит
Тип развёртки : Прогрессивная
Бит/(Пиксели*Кадры) : 0.314
Размер потока : 3,68 Гбайт (91%)
Default : Да
Forced : Нет
Цветовой диапазон : Limited
Основные цвета : BT.709
Характеристики трансфера : BT.709
Коэффициенты матрицы : BT.709

Аудио
Идентификатор : 2
Формат : AC-3
Формат/Информация : Audio Coding 3
Расширение режима : CM (complete main)
Параметр Endianness формата : Big
Идентификатор кодека : A_AC3
Продолжительность : 1 ч. 40 м.
Вид битрейта : Постоянный
Битрейт : 384 Кбит/сек
Каналы : 2 канала
Расположение каналов : Front: L R
Частота : 48,0 КГц
Частота кадров : 31,250 кадров/сек (1536 spf)
Метод сжатия : С потерями
Размер потока : 276 Мбайт (7%)
Default : Да
Forced : Нет

pb.wtf



Скачать Ни траура, ни похорон через торрент https://c.radikal.ru/c22/1905/f7/53b42b16991a.jpg Скачать фильм Ни траура, ни похорон через торрент бесплантно в хорошем качестве Описание: Отъявленный преступник объединяется со своим недавно вышедшим из тюрьмы дедушкой, чтобы сорвать большой куш, однако на их пути ... 10 10 5
Торрент: Зарегистрирован [2019-05-01 07:47] · скачан: 107 раз
Статус: T временная
Размер: 4.03 GB
Как cкачать? Как скачать Ни траура, ни похорон через торрент | qTorrent

28-11-2019 20:33  

Отключить всю рекламу на сайте

01-05-2019 12:50 Ни траура, ни похорон Скачать торрент  

судя по трейлеру мусор 2 балла так что в мусорку не буду смотретьpb.wtf



    Дорогой пользователь! Огромная просьба, поблагодарите релизера, оцените раздачу и оставьте свои комментарий, если Вы скачали Ни траура, ни похорон через торрент бесплатно! Внесите свою лепту в развитие PiratBit!
    Комментировать посты могут только пользователи прошедшие не сложную регистрацию
    Показать сообщения:    

    Ни траура, ни похорон через торрент
    Скачать бесплатно Ни траура, ни похорон
    Ни траура, ни похорон скачать торрент
    Ни траура, ни похорон смотреть онлайн
    Cкачать фильм Ни траура, ни похорон бесплатно
    Ни траура, ни похорон скачать торрент в хорошем качестве
    Ни траура, ни похорон смотреть онлайн бесплатно в хорошем качестве


    Вы не можете начинать темы
    Вы не можете отвечать на сообщения
    Вы не можете редактировать свои сообщения
    Вы не можете удалять свои сообщения
    Вы не можете голосовать в опросах
    Вы не можете прикреплять файлы к сообщениям
    Вы можете скачивать файлы