Ссылка на приватное зеркало всего за 1$. Внимание количество ограничено!!!

OK

1+1

iTunes

мы

OK

1

WEB-DLRip

Джокер

Пифагор

Ведьмак / The Witcher сериал

iTunes

ПШазам

ОК

Оно 2

iTunes

30
pack

Вам бонус

ВАЖНО

!!Акция!!

Alien_RageХит недели

RePack

Resident Evil 21

ИГРА 18+

pack

RePack

jed

RePack

fifa19

RePack

Assassins Creed: Odyssey

RePack

NEED FOR SPEED™ PAYBACK

4 сезон

9 сезон

Бесстыжие 9 сезон

Все сериалы

все сериалы на PB.wtf

RePack

FAR CRY 5
  

Придётся пойти на преступление / Non ci resta che il crimine (Массимилиано Бруно) [2019, комедия, BDRip 720p] MVO ["Синема УС"] pb.wtf

Придётся пойти на преступление через торрент pb.wtf

Размер: 5.2 GB | Добавлен: 8 мес. назад | Торрент скачан:47 раз
Скачать  

01-05-2019 12:34 Придётся пойти на преступление Скачать торрент  

Придётся пойти на преступление / Non ci resta che il crimine Год выпуска: 2019
Страна: Италия
Жанр: комедия
Продолжительность: 01:43:29
Перевод: Любительский (многоголосый) | "Синема УС"
Субтитры: отсутствуют

Режиссер: Массимилиано Бруно

rating

В ролях:

Алессандро Гассман, Марко Джаллини, Эдоардо Лео, Джанмарко Тоньяцци, Иления Пасторелли, Массимилиано Бруно, Мауро Аверсано, Сара Баккарини, Эмануэль Бевилаккуа, Даниэле Бландо

Описание:

В наши дни трое друзей, чтобы свести концы с концами, организовали тур по местам преступлений банды Делла Мальяна. Внезапно они очутились в 1982 году, во времена чемпионата мира по футболу в Испании, и встретились с настоящей бандой Делла Мальяна, которая в то время контролировала незаконные ставки.

Качество: BDRip 720p
Формат: MKV

Видео: h.264,6 746 Кбит/с, 1280x534
Аудио#1: Русский (AC3, 2 ch, 448 Кбит/с)
скриншот  скриншот  скриншот  

Общее
Уникальный идентификатор : 173860600551010873279403793504510376376 (0x82CC556BBA1E6F5F97D13A6ACE8F79B8)
Полное имя : D:\Non.Ci.Resta.Che.Il.Crimine.2019.P.BDRip.72Op.mkv
Формат : Matroska
Версия формата : Version 2
Размер файла : 5,20 Гбайт
Продолжительность : 1 ч. 43 м.
Режим общего битрейта : Переменный
Общий поток : 7196 Кбит/сек
Дата кодирования : UTC 2019-04-29 00:41:15
Программа кодирования : mkvmerge v8.3.0 ('Over the Horizon') 64bit
Библиотека кодирования : libebml v1.3.1 + libmatroska v1.4.2

Видео
Идентификатор : 1
Формат : AVC
Формат/Информация : Advanced Video Codec
Профиль формата : High@L4.1
Параметр CABAC формата : Да
Параметр RefFrames формата : 4 кадра
Идентификатор кодека : V_MPEG4/ISO/AVC
Продолжительность : 1 ч. 43 м.
Вид битрейта : Переменный
Битрейт : 6746 Кбит/сек
Максимальный битрейт : 7500 Кбит/сек
Ширина : 1280 пикселей
Высота : 534 пикселя
Соотношение сторон : 2,40:1
Режим частоты кадров : Постоянный
Частота кадров : 23,976 (24000/1001) кадра/сек
Стандарт вещания : Component
Цветовое пространство : YUV
Субдискретизация насыщенности : 4:2:0
Битовая глубина : 8 бит
Тип развёртки : Прогрессивная
Бит/(Пиксели*Кадры) : 0.403
Размер потока : 4,77 Гбайт (92%)
Default : Да
Forced : Нет
Цветовой диапазон : Limited
Основные цвета : BT.709
Характеристики трансфера : BT.709
Коэффициенты матрицы : BT.709

Аудио
Идентификатор : 2
Формат : AC-3
Формат/Информация : Audio Coding 3
Расширение режима : CM (complete main)
Параметр Endianness формата : Big
Идентификатор кодека : A_AC3
Продолжительность : 1 ч. 43 м.
Вид битрейта : Постоянный
Битрейт : 448 Кбит/сек
Каналы : 2 канала
Расположение каналов : Front: L R
Частота : 48,0 КГц
Частота кадров : 31,250 кадров/сек (1536 spf)
Метод сжатия : С потерями
Размер потока : 332 Мбайт (6%)
Default : Да
Forced : Нет

pb.wtf



Скачать Придётся пойти на преступление через торрент https://a.radikal.ru/a21/1905/a2/79f8a61719e1.jpg Скачать фильм Придётся пойти на преступление через торрент бесплантно в хорошем качестве Описание: В наши дни трое друзей, чтобы свести концы с концами, организовали тур по местам преступлений банды Делла Мальяна. Внезапно они ... 10 10 5
Торрент: Зарегистрирован [2019-05-01 12:34] · скачан: 47 раз
Статус: # сомнительно
Размер: 5.2 GB
Как cкачать? Как скачать Придётся пойти на преступление через торрент | qTorrent

% Раздел Тема Автор DL S | L
T Фильмы (мультфильмы) cо спонсором показа (Новинки AVI/MKV) [ 1.46 GB ] Придётся пойти на преступление / Non ci resta che il crimine [2019 HDRip] MVO ["Синема УС"] bober100 Скачать
2 | 0

28-11-2019 20:33  

Отключить всю рекламу на сайте

    Дорогой пользователь! Огромная просьба, поблагодарите релизера, оцените раздачу и оставьте свои комментарий, если Вы скачали Придётся пойти на преступление через торрент бесплатно! Внесите свою лепту в развитие PiratBit!
    Комментировать посты могут только пользователи прошедшие не сложную регистрацию
    Показать сообщения:    

    Придётся пойти на преступление через торрент
    Скачать бесплатно Придётся пойти на преступление
    Придётся пойти на преступление скачать торрент
    Придётся пойти на преступление смотреть онлайн
    Cкачать фильм Придётся пойти на преступление бесплатно
    Придётся пойти на преступление скачать торрент в хорошем качестве
    Придётся пойти на преступление смотреть онлайн бесплатно в хорошем качестве


    Вы не можете начинать темы
    Вы не можете отвечать на сообщения
    Вы не можете редактировать свои сообщения
    Вы не можете удалять свои сообщения
    Вы не можете голосовать в опросах
    Вы не можете прикреплять файлы к сообщениям
    Вы можете скачивать файлы