Ссылка на приватное зеркало нашего сайта всего за 1$. Внимание количество ограничено!!!

2 сезон

iTunes

1 сезон

1

2 сезон

2 сезон

iTunes

1 сезон

RePack

30

Новинка

ВАЖНО

ИГРА 18+

pack

RePack

MK11
pack

Забери бонус

RePack

jed

!!Акция!!

Alien_Rage

RePack

fifa19

RePack

Assassins Creed: Odyssey

RePack

NEED FOR SPEED™ PAYBACK

4 сезон

9 сезон

Бесстыжие 9 сезон

Все сериалы

все сериалы на PB.wtf

RePack

FAR CRY 5
  

Лесок / Little Woods (Ниа ДаКоста) [2018, драма, криминал, WEB-DL 1080p] MVO [HDRezka Studio] pb.wtf

Лесок через торрент pb.wtf

Размер: 5.77 GB | Добавлен: 1 год 6 мес. назад | Торрент скачан:25 раз
Скачать  

01-05-2019 14:05 Лесок Скачать торрент  

Лесок / Little Woods Год выпуска: 2018
Страна: США
Жанр: драма, криминал
Продолжительность: 01:43:28
Перевод: Профессиональный (многоголосый) | HDRezka Studio
Субтитры: отсутствуют

Режиссер: Ниа ДаКоста

rating

В ролях:

Тесса Томпсон, Лили Джеймс, Джеймс Бэдж Дэйл, Лэнс Реддик, Люк Кирби, Люси Кристиан, Элизабет Максвелл, Джо Стивенс, Моргана Шоу, Гари Тиг

Описание:

Годами Олли помогала жителям своего городка в Северной Дакоте незаконно получать медицинское лечение в Канаде. Когда же девушку начинают преследовать власти, она рассчитывает оставить бизнес, но вляпывается в еще большие неприятности и в отчаянии обращается за помощью к сестре.

Качество: WEB-DL 1080p
Формат: MKV

Видео: MPEG-4 AVC, 1920x800, 7148 Kbit/s, 23.976 fps
Аудио#1: 48 kHz, AC3, 2.0, 192 Kbps | HDRezka Studio | RUS |
Аудио#2: 48 kHz, E-AC3, 5.1, 640 Kbps | Оригинал | ENG |
скриншот  скриншот  скриншот  скриншот  скриншот  

General
Unique ID : 269608725003345622249968195288370073297 (0xCAD4C06DC934385D50FD74E8D6854ED1)
Complete name : D:Video111Little.Woods.2018.AMZN.WEB-DL.1080p.seleZen.mkv
Format : Matroska
Format version : Version 4
File size : 5.77 GiB
Duration : 1 h 43 min
Overall bit rate mode : Constant
Overall bit rate : 7 983 kb/s
Movie name : Little Woods 2018 from селезень
Encoded date : UTC 2019-05-26 09:37:47
Writing application : mkvmerge v33.1.0 ('Primrose') 64-bit
Writing library : libebml v1.3.7 + libmatroska v1.5.0

Video
ID : 1
Format : AVC
Format/Info : Advanced Video Codec
Format profile : High@L4
Format settings : CABAC / 4 Ref Frames
Format settings, CABAC : Yes
Format settings, Reference : 4 frames
Codec ID : V_MPEG4/ISO/AVC
Duration : 1 h 43 min
Bit rate mode : Constant
Bit rate : 7 148 kb/s
Nominal bit rate : 10 000 kb/s
Width : 1 920 pixels
Height : 800 pixels
Display aspect ratio : 2.40:1
Frame rate mode : Constant
Frame rate : 23.976 (24000/1001) FPS
Color space : YUV
Chroma subsampling : 4:2:0
Bit depth : 8 bits
Scan type : Progressive
Bits/(Pixel*Frame) : 0.194
Stream size : 5.17 GiB (90%)
Language : English
Default : Yes
Forced : No
Color range : Limited
Color primaries : BT.709
Transfer characteristics : BT.709
Matrix coefficients : BT.709

Audio #1
ID : 2
Format : AC-3
Format/Info : Audio Coding 3
Commercial name : Dolby Digital
Codec ID : A_AC3
Duration : 1 h 43 min
Bit rate mode : Constant
Bit rate : 192 kb/s
Channel(s) : 2 channels
Channel layout : L R
Sampling rate : 48.0 kHz
Frame rate : 31.250 FPS (1536 SPF)
Bit depth : 16 bits
Compression mode : Lossy
Stream size : 142 MiB (2%)
Title : MVO [HDRezka Studio]
Language : Russian
Service kind : Complete Main
Default : Yes
Forced : Yes

Audio #2
ID : 3
Format : E-AC-3
Format/Info : Enhanced AC-3
Commercial name : Dolby Digital Plus
Codec ID : A_EAC3
Duration : 1 h 43 min
Bit rate mode : Constant
Bit rate : 640 kb/s
Channel(s) : 6 channels
Channel layout : L R C LFE Ls Rs
Sampling rate : 48.0 kHz
Frame rate : 31.250 FPS (1536 SPF)
Compression mode : Lossy
Stream size : 474 MiB (8%)
Title : Original
Language : English
Service kind : Complete Main
Default : No
Forced : No

Menu
00:00:00.000 : en:00:00:00.000
00:11:06.625 : en:00:11:06.625
00:23:08.917 : en:00:23:08.917
00:30:05.083 : en:00:30:05.083
00:38:32.333 : en:00:38:32.333
00:45:25.250 : en:00:45:25.250
00:55:55.750 : en:00:55:55.750
01:03:44.042 : en:01:03:44.042
01:11:27.583 : en:01:11:27.583
01:21:28.375 : en:01:21:28.375
01:33:40.625 : en:01:33:40.625
01:39:15.792 : en:01:39:15.792

pb.wtf



Скачать Лесок через торрент https://a.radikal.ru/a26/1905/6f/6c3fc5c73515.jpg Скачать фильм Лесок через торрент бесплантно в хорошем качестве Описание: Годами Олли помогала жителям своего городка в Северной Дакоте незаконно получать медицинское лечение в Канаде. Когда же девушку ... 10 10 6
Торрент: Зарегистрирован [2019-05-27 00:00] · скачан: 25 раз
Статус: T временная
Размер: 5.77 GB
Как cкачать? Как скачать Лесок через торрент | qTorrent

% Раздел Тема Автор DL S | L
T Фильмы 2018 [DVDrip, WEB-DLRip, HDrip] (DUB, MVO) [ 1.46 GB ] Лесок / Little Woods [2018 WEB-DLRip] MVO [HDRezka studio] bober100 Скачать
1 | 0

28-11-2019 20:33  

Отключить всю рекламу на сайте

    Дорогой пользователь! Огромная просьба, поблагодарите релизера, оцените раздачу и оставьте свои комментарий, если Вы скачали Лесок через торрент бесплатно! Внесите свою лепту в развитие PiratBit!
    Комментировать посты могут только пользователи прошедшие не сложную регистрацию
    Показать сообщения:    

    Лесок через торрент
    Скачать бесплатно Лесок
    Лесок скачать торрент
    Лесок смотреть онлайн
    Cкачать фильм Лесок бесплатно
    Лесок скачать торрент в хорошем качестве
    Лесок смотреть онлайн бесплатно в хорошем качестве


    Вы не можете начинать темы
    Вы не можете отвечать на сообщения
    Вы не можете редактировать свои сообщения
    Вы не можете удалять свои сообщения
    Вы не можете голосовать в опросах
    Вы не можете прикреплять файлы к сообщениям
    Вы можете скачивать файлы