Ссылка на приватное зеркало нашего сайта всего за 1$. Внимание количество ограничено!!!

2 сезон

iTunes

1 сезон

1

iTunes

iTunes

iTunes

1 сезон

RePack

30

ИГРА 18+

pack

ВАЖНО

!!Акция!!

Alien_RageХит недели

RePack

MK11
pack

Забери бонус

RePack

jed

!!Акция!!

Alien_Rage

RePack

fifa19

RePack

Assassins Creed: Odyssey

RePack

NEED FOR SPEED™ PAYBACK

4 сезон

9 сезон

Бесстыжие 9 сезон

Все сериалы

все сериалы на PB.wtf

RePack

FAR CRY 5
  

Краплёный / Сезон: 1 / Серии: 1-24 из 24 (Ярослав Мочалов) [2012, криминал, WEB-DLRip-AVC] pb.wtf

Краплёный через торрент pb.wtf

Размер: 15.51 GB | Добавлен: 1 год 5 мес. назад | Торрент скачан:115 раз
Скачать  

01-05-2019 16:09 Краплёный Скачать торрент  

Краплёный Год выпуска: 2012
Страна: Россия
Жанр: криминал
Продолжительность: ~ 00:48:00 серия
Перевод: Не требуется
Субтитры: отсутствуют

Режиссер: Ярослав Мочалов



В ролях:

Валерий Золотухин, Андрей Феськов, Вячеслав Крикунов, Яна Гладких, Дарья Мороз, Павел Баршак, Владимир Зайцев, Игорь Бочкин, Алексей Гуськов, Владимир Капустин, Алексей Ошурков.

Описание:

Дружная команда молодых талантливых учёных разрабатывают идею, которая может в корне перевернуть принципы индивидуальной защиты силовых структур и армии. Они живут полнокровной жизнью в своём любимом деле, в любви к девушкам, в настоящей мужской дружбе и выручке. Но непредвиденная ситуация, подставившая под удар одного из них, заставляет пересмотреть привычные человеческие принципы. И в этой обстановке начинают работать более приземлённые, но в чём-то более справедливые "блатные" понятия. Лишь они, и сила духа помогут интеллигентным героям выбраться из скользкой ямы интриг, коррупции и обычного человеческого предательства.

Качество: WEB-DLRip-AVC
Формат: MKV

Видео: 1024x562, 25 fps, AVC MPEG-4 (x264), High@L4.1 ~1800 kbps avg, 0.114 bit/pixel
Аудио: 48 kHz, AC3, 2 ch, ~192 kbps avg
скриншот  скриншот  скриншот  скриншот  

Общее
Уникальный идентификатор : 201170266862993171350231622164163304620 (0x9757FBED2332BC8F93A6005951A79CAC)
Полное имя : D:\Kraplenyi.2012.WEB-DLRip.(AVC).MediaClub\Kraplenyi.(01.seriya.iz.24).2012.WEB-DLRip.(AVC).MediaClub.mkv
Формат : Matroska
Версия формата : Version 4 / Version 2
Размер файла : 655 Мбайт
Продолжительность : 45 м. 43 с.
Общий поток : 2004 Кбит/сек
Дата кодирования : UTC 2014-01-14 12:54:42
Программа кодирования : mkvmerge v6.3.0 ('You can't stop me!') built on Jun 28 2013 20:09:41
Библиотека кодирования : libebml v1.3.0 + libmatroska v1.4.0

Видео
Идентификатор : 1
Формат : AVC
Формат/Информация : Advanced Video Codec
Профиль формата : High@L4.1
Параметр CABAC формата : Да
Параметр RefFrames формата : 4 кадра
Идентификатор кодека : V_MPEG4/ISO/AVC
Продолжительность : 45 м. 43 с.
Битрейт : 1800 Кбит/сек
Ширина : 1024 пикселя
Высота : 562 пикселя
Соотношение сторон : 1,85:1
Режим частоты кадров : Постоянный
Частота кадров : 25,000 кадров/сек
Цветовое пространство : YUV
Субдискретизация насыщенности : 4:2:0
Битовая глубина : 8 бит
Тип развёртки : Прогрессивная
Бит/(Пиксели*Кадры) : 0.125
Размер потока : 580 Мбайт (88%)
Библиотека кодирования : x264 core 123 r2189 35cf912
Настройки программы : cabac=1 / ref=3 / deblock=1:0:0 / analyse=0x3:0x133 / me=hex / subme=7 / psy=1 / psy_rd=1.00:0.00 / mixed_ref=1 / me_range=16 / chroma_me=1 / trellis=1 / 8x8dct=1 / cqm=0 / deadzone=21,11 / fast_pskip=1 / chroma_qp_offset=-2 / threads=12 / sliced_threads=0 / nr=0 / decimate=1 / interlaced=0 / bluray_compat=0 / constrained_intra=0 / bframes=3 / b_pyramid=2 / b_adapt=1 / b_bias=0 / direct=1 / weightb=1 / open_gop=0 / weightp=2 / keyint=250 / keyint_min=25 / scenecut=40 / intra_refresh=0 / rc_lookahead=40 / rc=abr / mbtree=1 / bitrate=1800 / ratetol=1.0 / qcomp=0.60 / qpmin=10 / qpmax=51 / qpstep=4 / ip_ratio=1.40 / aq=1:1.00
Default : Да
Forced : Да

Аудио
Идентификатор : 2
Формат : AC-3
Формат/Информация : Audio Coding 3
Расширение режима : CM (complete main)
Параметр Endianness формата : Big
Идентификатор кодека : A_AC3
Продолжительность : 45 м. 43 с.
Вид битрейта : Постоянный
Битрейт : 192 Кбит/сек
Каналы : 2 канала
Расположение каналов : Front: L R
Частота : 44,1 КГц
Частота кадров : 28,711 кадров/сек (1536 spf)
Метод сжатия : С потерями
Размер потока : 62,8 Мбайт (10%)
Язык : Russian
Default : Да
Forced : Да

pb.wtf



Скачать Краплёный через торрент http://i52.fastpic.ru/big/2013/0409/59/28a8e93ae3ff3e867e8ec55442c93859.jpeg Скачать фильм Краплёный через торрент бесплантно в хорошем качестве Описание: Дружная команда молодых талантливых учёных разрабатывают идею, которая может в корне перевернуть принципы индивидуальной защиты ... 7 10 5
Торрент: Зарегистрирован [2019-05-01 16:09] · скачан: 115 раз
Статус: √ проверено
Размер: 15.51 GB
Как cкачать? Как скачать Краплёный через торрент | qTorrent

28-11-2019 20:33  

Отключить всю рекламу на сайте

    Дорогой пользователь! Огромная просьба, поблагодарите релизера, оцените раздачу и оставьте свои комментарий, если Вы скачали Краплёный через торрент бесплатно! Внесите свою лепту в развитие PiratBit!
    Комментировать посты могут только пользователи прошедшие не сложную регистрацию
    Показать сообщения:    

    Краплёный через торрент
    Скачать бесплатно Краплёный
    Краплёный скачать торрент
    Краплёный смотреть онлайн
    Cкачать фильм Краплёный бесплатно
    Краплёный скачать торрент в хорошем качестве
    Краплёный смотреть онлайн бесплатно в хорошем качестве


    Вы не можете начинать темы
    Вы не можете отвечать на сообщения
    Вы не можете редактировать свои сообщения
    Вы не можете удалять свои сообщения
    Вы не можете голосовать в опросах
    Вы не можете прикреплять файлы к сообщениям
    Вы можете скачивать файлы