Ссылка на приватное зеркало нашего сайта всего за 1$. Внимание количество ограничено!!!

2 сезон

iTunes

1 сезон

1

iTunes

iTunes

iTunes

1 сезон

RePack

30

ИГРА 18+

pack

ВАЖНО

!!Акция!!

Alien_RageХит недели

RePack

MK11
pack

Забери бонус

RePack

jed

!!Акция!!

Alien_Rage

RePack

fifa19

RePack

Assassins Creed: Odyssey

RePack

NEED FOR SPEED™ PAYBACK

4 сезон

9 сезон

Бесстыжие 9 сезон

Все сериалы

все сериалы на PB.wtf

RePack

FAR CRY 5
  

Отпуск за период службы / Серии: 1-4 из 4 (Станислав Мареев) [2019, Боевик, криминал, WEB-DL 1080p] pb.wtf

Отпуск за период службы через торрент pb.wtf

Размер: 8.15 GB | Добавлен: 1 год 5 мес. назад | Торрент скачан:40 раз
Скачать  

01-05-2019 17:45 Отпуск за период службы Скачать торрент  

Отпуск за период службы Год выпуска: 2019
Страна: Россия
Жанр: Боевик, криминал
Продолжительность: ~ 00:46:00
Субтитры: отсутствуют

Режиссер: Станислав Мареев



В ролях:

Игорь Новосёлов (II), Кристина Борейко, Оксана Чивелёва, Александр Фисенко, Павел Южаков-Харланчук

Описание:

Сержант-контрактник Игорь Беликов берет отпуск, чтобы навестить больного отца. По дороге он случайно становится пешкой в игре криминальных структур. Спасаясь от неожиданного нападения, Игорь убивает нескольких бандитов и угоняет фургон, в котором находится ценный груз. За Игорем начинается «охота». Полиция также идет по его следу. Выясняется, что отец Игоря не болен. Что же заставило героя взять отпуск и куда он направляется?

Качество: WEB-DL 1080p
Формат: MKV

Видео: 1920х1080 (16:9), 25 fps, AVC MPEG-4 (x264), High@L4.0 ~ 6000 kbps avg, 0.152 bit/pixel
Аудио: 48 kHz, AC3, 2 ch, ~ 192 kbps avg


Релиз от: скриншот  
скриншот  скриншот  скриншот  скриншот  

Общее
Уникальный идентификатор : 234453532881723150605041534617867331466 (0xB0621BA2E6C52BE692A924DDF3F1278A)
Полное имя : D:\Otpusk.za.period.sluzhby.2018.WEB-DL.(1080p).ExKinoRay\Otpusk.za.period.sluzhby.(01.seriya.iz.04).2018.WEB-DL.(1080p).ExKinoRay.mkv
Формат : Matroska
Версия формата : Version 4 / Version 2
Размер файла : 2,01 Гбайт
Продолжительность : 47 м. 1 с.
Режим общего битрейта : Постоянный
Общий поток : 6132 Кбит/сек
Дата кодирования : UTC 2019-05-01 09:21:57
Программа кодирования : mkvmerge v7.8.0 ('River Man') 32bit built on Mar 27 2015 16:18:02
Библиотека кодирования : libebml v1.3.1 + libmatroska v1.4.2

Видео
Идентификатор : 1
Формат : AVC
Формат/Информация : Advanced Video Codec
Профиль формата : High@L4.1
Параметр CABAC формата : Нет
Параметр RefFrames формата : 2 кадра
Идентификатор кодека : V_MPEG4/ISO/AVC
Продолжительность : 47 м. 1 с.
Вид битрейта : Постоянный
Битрейт : 6000 Кбит/сек
Ширина : 1920 пикселей
Высота : 1080 пикселей
Соотношение сторон : 16:9
Режим частоты кадров : Постоянный
Частота кадров : 25,000 кадров/сек
Стандарт вещания : PAL
Цветовое пространство : YUV
Субдискретизация насыщенности : 4:2:0
Битовая глубина : 8 бит
Тип развёртки : Прогрессивная
Бит/(Пиксели*Кадры) : 0.116
Размер потока : 1,91 Гбайт (95%)
Default : Да
Forced : Нет
Цветовой диапазон : Limited
Основные цвета : BT.709
Характеристики трансфера : BT.709
Коэффициенты матрицы : BT.709

Аудио
Идентификатор : 2
Формат : AC-3
Формат/Информация : Audio Coding 3
Расширение режима : CM (complete main)
Параметр Endianness формата : Big
Идентификатор кодека : A_AC3
Продолжительность : 47 м. 1 с.
Вид битрейта : Постоянный
Битрейт : 192 Кбит/сек
Каналы : 2 канала
Расположение каналов : Front: L R
Частота : 48,0 КГц
Частота кадров : 31,250 кадров/сек (1536 spf)
Метод сжатия : С потерями
Размер потока : 64,6 Мбайт (3%)
Язык : Russian
Default : Да
Forced : Нет

Внимание! Раздача ведётся путём добавления новых серий; при каждом добавлении создётся новый торрент. Чтобы начать докачку новой серии, пользователям необходимо сделать следующее:
(1) остановить скачивание,
(2) удалить старый торрент у себя из клиента (старые серии удалять не надо),
(3) скачать новый торрент и запустить его у себя в клиенте вместо старого, при этом указать клиенту путь в старую папку куда и должно происходить скачивание новых серий.Ваш клиент при этом должен произвести хеширование (проверку) старой папки (если не производит сам - помогите ему сделать это), и будет докачивать только те серии которых у вас ещё нет. Старые серии при этом не удаляются, а продолжают раздаваться!Eсли вы уже удалили старые серии, то предотвратить повторную закачку старых серий можно, отжав галочку в соответсвующих местах при запуске нового торрента.
pb.wtf



Скачать Отпуск за период службы через торрент http://img14.lostpic.net/2019/05/01/0a971bf757fbf55f45665790746f1b88.jpg Скачать фильм Отпуск за период службы через торрент бесплантно в хорошем качестве Описание: Сержант-контрактник Игорь Беликов берет отпуск, чтобы навестить больного отца. По дороге он случайно становится пешкой в игре ... 10 10 4
Торрент: Зарегистрирован [2019-05-02 00:04] · скачан: 40 раз
Статус: √ проверено
Размер: 8.15 GB
Как cкачать? Как скачать Отпуск за период службы через торрент | qTorrent

% Раздел Тема Автор DL S | L
Наши сериалы [ 4.91 GB ] Отпуск за период службы / Серии: 1-4 из 4 [2019 WEBRip 720p] bober100 Скачать
1 | 0
Наши сериалы [ 2.92 GB ] Отпуск за период службы / Серии: 1-4 из 4 [2019 WEBRip-AVC] bober100 Скачать
1 | 0
Наши сериалы [ 2.37 GB ] Отпуск за период службы / Серии: 1-4 из 4 [2019 SATRip-AVC] aleksan55 Скачать
1 | 0
Наши сериалы [ 2.35 GB ] Отпуск за период службы / Серии: 1-4 из 4 [2019 SATRip] bober100 Скачать
1 | 0

28-11-2019 20:33  

Отключить всю рекламу на сайте

    Дорогой пользователь! Огромная просьба, поблагодарите релизера, оцените раздачу и оставьте свои комментарий, если Вы скачали Отпуск за период службы через торрент бесплатно! Внесите свою лепту в развитие PiratBit!
    Комментировать посты могут только пользователи прошедшие не сложную регистрацию
    Показать сообщения:    

    Отпуск за период службы через торрент
    Скачать бесплатно Отпуск за период службы
    Отпуск за период службы скачать торрент
    Отпуск за период службы смотреть онлайн
    Cкачать фильм Отпуск за период службы бесплатно
    Отпуск за период службы скачать торрент в хорошем качестве
    Отпуск за период службы смотреть онлайн бесплатно в хорошем качестве


    Вы не можете начинать темы
    Вы не можете отвечать на сообщения
    Вы не можете редактировать свои сообщения
    Вы не можете удалять свои сообщения
    Вы не можете голосовать в опросах
    Вы не можете прикреплять файлы к сообщениям
    Вы можете скачивать файлы