Ссылка на приватное зеркало нашего сайта всего за 1$. Внимание количество ограничено!!!

2 сезон

iTunes

1 сезон

1

iTunes

iTunes

iTunes

1 сезон

RePack

30

ИГРА 18+

pack

ВАЖНО

!!Акция!!

Alien_RageХит недели

RePack

MK11
pack

Забери бонус

RePack

jed

!!Акция!!

Alien_Rage

RePack

fifa19

RePack

Assassins Creed: Odyssey

RePack

NEED FOR SPEED™ PAYBACK

4 сезон

9 сезон

Бесстыжие 9 сезон

Все сериалы

все сериалы на PB.wtf

RePack

FAR CRY 5
  

Отпуск за период службы / Серии: 1-4 из 4 (Станислав Мареев) [2019, Боевик, криминал, WEBRip-AVC] pb.wtf

Отпуск за период службы через торрент pb.wtf

Размер: 2.92 GB | Добавлен: 1 год 5 мес. назад | Торрент скачан:146 раз
Скачать  

01-05-2019 19:22 Отпуск за период службы Скачать торрент  

Отпуск за период службы Год выпуска: 2019
Страна: Россия
Жанр: Боевик, криминал
Продолжительность: ~ 00:46:00
Субтитры: отсутствуют

Режиссер: Станислав Мареев



В ролях:

Игорь Новосёлов (II), Кристина Борейко, Оксана Чивелёва, Александр Фисенко, Павел Южаков-Харланчук

Описание:

Сержант-контрактник Игорь Беликов берет отпуск, чтобы навестить больного отца. По дороге он случайно становится пешкой в игре криминальных структур. Спасаясь от неожиданного нападения, Игорь убивает нескольких бандитов и угоняет фургон, в котором находится ценный груз. За Игорем начинается «охота». Полиция также идет по его следу. Выясняется, что отец Игоря не болен. Что же заставило героя взять отпуск и куда он направляется?

Качество: WEBRip-AVC
Формат: MKV

Видео: MPEG-4 AVC, ~ 2000 Кбит/с, 1024x576, 25 кадр/с
Аудио: 48 kHz, AC3, 2 ch, ~ 192 kbps avg
скриншот  скриншот  скриншот  скриншот  

Общее
Уникальный идентификатор : 202584217723505968599189980302255022031 (0x98684D16079997C0BEB4CE6897375FCF)
Полное имя : D:\Отпуск за период службы.(2018).WEBRip.(AVC).Files-x\01.Otpusk.za.period.sluzhby.(2019).WEBRip.(AVC).by.Серый1779.Files-x.mkv
Формат : Matroska
Версия формата : Version 2
Размер файла : 738 Мбайт
Продолжительность : 47 м. 1 с.
Общий поток : 2194 Кбит/сек
Дата кодирования : UTC 2019-05-01 18:54:04
Программа кодирования : mkvmerge v7.8.0 ('River Man') 32bit built on Apr 3 2015 12:11:22
Библиотека кодирования : libebml v1.3.1 + libmatroska v1.4.2

Видео
Идентификатор : 1
Формат : AVC
Формат/Информация : Advanced Video Codec
Профиль формата : High@L4.1
Параметр CABAC формата : Да
Параметр RefFrames формата : 9 кадров
Идентификатор кодека : V_MPEG4/ISO/AVC
Продолжительность : 47 м. 1 с.
Битрейт : 2000 Кбит/сек
Ширина : 1024 пикселя
Высота : 576 пикселей
Соотношение сторон : 16:9
Режим частоты кадров : Постоянный
Частота кадров : 25,000 кадров/сек
Цветовое пространство : YUV
Субдискретизация насыщенности : 4:2:0
Битовая глубина : 8 бит
Тип развёртки : Прогрессивная
Бит/(Пиксели*Кадры) : 0.136
Размер потока : 659 Мбайт (89%)
Библиотека кодирования : x264 core 146 r2538 121396c
Настройки программы : cabac=1 / ref=9 / deblock=1:-2:-1 / analyse=0x3:0x133 / me=umh / subme=9 / psy=1 / psy_rd=1.00:0.15 / mixed_ref=1 / me_range=32 / chroma_me=1 / trellis=2 / 8x8dct=1 / cqm=0 / deadzone=21,11 / fast_pskip=0 / chroma_qp_offset=-3 / threads=18 / lookahead_threads=3 / sliced_threads=0 / nr=0 / decimate=1 / interlaced=0 / bluray_compat=0 / constrained_intra=0 / bframes=9 / b_pyramid=2 / b_adapt=2 / b_bias=0 / direct=1 / weightb=1 / open_gop=0 / weightp=2 / keyint=250 / keyint_min=25 / scenecut=40 / intra_refresh=0 / rc=2pass / mbtree=0 / bitrate=2000 / ratetol=1.0 / qcomp=0.60 / qpmin=0 / qpmax=69 / qpstep=4 / cplxblur=20.0 / qblur=0.5 / ip_ratio=1.40 / pb_ratio=1.30 / aq=2:1.00
Default : Да
Forced : Нет
Цветовой диапазон : Limited
Основные цвета : BT.709
Характеристики трансфера : BT.709
Коэффициенты матрицы : BT.709

Аудио
Идентификатор : 2
Формат : AC-3
Формат/Информация : Audio Coding 3
Расширение режима : CM (complete main)
Параметр Endianness формата : Big
Идентификатор кодека : A_AC3
Продолжительность : 47 м. 1 с.
Вид битрейта : Постоянный
Битрейт : 192 Кбит/сек
Каналы : 2 канала
Расположение каналов : Front: L R
Частота : 48,0 КГц
Частота кадров : 31,250 кадров/сек (1536 spf)
Метод сжатия : С потерями
Размер потока : 64,6 Мбайт (9%)
Default : Да
Forced : Нет

Внимание! Раздача ведётся путём добавления новых серий; при каждом добавлении создётся новый торрент. Чтобы начать докачку новой серии, пользователям необходимо сделать следующее:
(1) остановить скачивание,
(2) удалить старый торрент у себя из клиента (старые серии удалять не надо),
(3) скачать новый торрент и запустить его у себя в клиенте вместо старого, при этом указать клиенту путь в старую папку куда и должно происходить скачивание новых серий.Ваш клиент при этом должен произвести хеширование (проверку) старой папки (если не производит сам - помогите ему сделать это), и будет докачивать только те серии которых у вас ещё нет. Старые серии при этом не удаляются, а продолжают раздаваться!Eсли вы уже удалили старые серии, то предотвратить повторную закачку старых серий можно, отжав галочку в соответсвующих местах при запуске нового торрента.
pb.wtf



Скачать Отпуск за период службы через торрент https://i109.fastpic.ru/big/2019/0501/7d/baa753d7e30d175a36c910a525916b7d.jpg Скачать фильм Отпуск за период службы через торрент бесплантно в хорошем качестве Описание: Сержант-контрактник Игорь Беликов берет отпуск, чтобы навестить больного отца. По дороге он случайно становится пешкой в игре ... 10 10 7
Торрент: Зарегистрирован [2019-05-02 07:03] · скачан: 146 раз
Статус: √ проверено
Размер: 2.92 GB
Как cкачать? Как скачать Отпуск за период службы через торрент | qTorrent

% Раздел Тема Автор DL S | L
Наши сериалы [ 4.91 GB ] Отпуск за период службы / Серии: 1-4 из 4 [2019 WEBRip 720p] bober100 Скачать
1 | 0
Наши сериалы [ 8.15 GB ] Отпуск за период службы / Серии: 1-4 из 4 [2019 WEB-DL 1080p] bober100 Скачать
1 | 0
Наши сериалы [ 2.37 GB ] Отпуск за период службы / Серии: 1-4 из 4 [2019 SATRip-AVC] aleksan55 Скачать
1 | 0
Наши сериалы [ 2.35 GB ] Отпуск за период службы / Серии: 1-4 из 4 [2019 SATRip] bober100 Скачать
1 | 0

28-11-2019 20:33  

Отключить всю рекламу на сайте

    Дорогой пользователь! Огромная просьба, поблагодарите релизера, оцените раздачу и оставьте свои комментарий, если Вы скачали Отпуск за период службы через торрент бесплатно! Внесите свою лепту в развитие PiratBit!
    Комментировать посты могут только пользователи прошедшие не сложную регистрацию
    Показать сообщения:    

    Отпуск за период службы через торрент
    Скачать бесплатно Отпуск за период службы
    Отпуск за период службы скачать торрент
    Отпуск за период службы смотреть онлайн
    Cкачать фильм Отпуск за период службы бесплатно
    Отпуск за период службы скачать торрент в хорошем качестве
    Отпуск за период службы смотреть онлайн бесплатно в хорошем качестве


    Вы не можете начинать темы
    Вы не можете отвечать на сообщения
    Вы не можете редактировать свои сообщения
    Вы не можете удалять свои сообщения
    Вы не можете голосовать в опросах
    Вы не можете прикреплять файлы к сообщениям
    Вы можете скачивать файлы