Marvel's Avengers Deluxe Edition (супер цена) 159р. Внимание количество ограничено!!!

2 сезон

iTunes

iTunes

1

iTunes

iTunes

iTunes

WEBRip

iTunes

30
pack

Новость дня

ВАЖНО

!!Акция!!

Alien_RageХит недели

RePack

Horizon Zero Dawn

ИГРА 18+

pack

RePack

jed

!!Акция!!

Alien_Rage

RePack

fifa19

RePack

Assassins Creed: Odyssey

RePack

NEED FOR SPEED™ PAYBACK

4 сезон

9 сезон

Бесстыжие 9 сезон

Все сериалы

все сериалы на PB.wtf

RePack

FAR CRY 5
  

Спасти или погибнуть / Sauver ou périr (Фредерик Теллье) [2018, драма, BDRip 720p] MVO ["Синема УС"] pb.wtf

Спасти или погибнуть через торрент pb.wtf

Размер: 5.92 GB | Добавлен: 1 год 4 мес. назад | Торрент скачан:18 раз
Скачать  

01-05-2019 19:35 Спасти или погибнуть Скачать торрент  

Спасти или погибнуть / Sauver ou périr Год выпуска: 2018
Страна: Франция
Жанр: драма
Продолжительность: 01:57:58
Перевод: Любительский (многоголосый) | "Синема УС"
Субтитры: отсутствуют

Режиссер: Фредерик Теллье

rating

В ролях:

Пьер Нинэ, Анаис Демустье, Венсан Ротье, Хлоя Стефани, Сами Буажила, Элизабет Коммелен, Амели Бенеди, Мостефа Буабане, Калипсо Буйтенхейс, Ясин Уиша

Описание:

Франк - обычный парижский пожарный и счастливый семьянин, отец близнецов. Во время очередного вызова он жертвует собой ради спасения людей. Очнувшись в больнице, Франк узнает, что его лицо изуродовано пламенем. Теперь ему предстоит согласиться на свое спасение и заново научиться жить.

Качество: BDRip 720p
Формат: MKV

Видео: 6 736 kb/s, 1280x536
Аудио: Русский (AC3, 2 ch, 448 Кбит/с)
скриншот  скриншот  скриншот  

Общее
Уникальный идентификатор : 181684618478224912938860350205155165667 (0x88AF2F498F3936DABF68E14D071D45E3)
Полное имя : D:\Sauver.ou.Perir.2018.P.BDRip.72Op.mkv
Формат : Matroska
Версия формата : Version 2
Размер файла : 5,92 Гбайт
Продолжительность : 1 ч. 57 м.
Режим общего битрейта : Переменный
Общий поток : 7186 Кбит/сек
Дата кодирования : UTC 2019-05-01 16:24:20
Программа кодирования : mkvmerge v8.3.0 ('Over the Horizon') 64bit
Библиотека кодирования : libebml v1.3.1 + libmatroska v1.4.2

Видео
Идентификатор : 1
Формат : AVC
Формат/Информация : Advanced Video Codec
Профиль формата : High@L4.1
Параметр CABAC формата : Да
Параметр RefFrames формата : 4 кадра
Идентификатор кодека : V_MPEG4/ISO/AVC
Продолжительность : 1 ч. 57 м.
Вид битрейта : Переменный
Битрейт : 6736 Кбит/сек
Максимальный битрейт : 7500 Кбит/сек
Ширина : 1280 пикселей
Высота : 536 пикселей
Соотношение сторон : 2,40:1
Режим частоты кадров : Постоянный
Частота кадров : 23,976 (24000/1001) кадра/сек
Стандарт вещания : Component
Цветовое пространство : YUV
Субдискретизация насыщенности : 4:2:0
Битовая глубина : 8 бит
Тип развёртки : Прогрессивная
Бит/(Пиксели*Кадры) : 0.401
Размер потока : 5,43 Гбайт (92%)
Default : Да
Forced : Нет
Цветовой диапазон : Limited
Основные цвета : BT.709
Характеристики трансфера : BT.709
Коэффициенты матрицы : BT.709

Аудио
Идентификатор : 2
Формат : AC-3
Формат/Информация : Audio Coding 3
Расширение режима : CM (complete main)
Параметр Endianness формата : Big
Идентификатор кодека : A_AC3
Продолжительность : 1 ч. 57 м.
Вид битрейта : Постоянный
Битрейт : 448 Кбит/сек
Каналы : 2 канала
Расположение каналов : Front: L R
Частота : 48,0 КГц
Частота кадров : 31,250 кадров/сек (1536 spf)
Метод сжатия : С потерями
Размер потока : 378 Мбайт (6%)
Default : Да
Forced : Нет

pb.wtf



Скачать Спасти или погибнуть через торрент https://a.radikal.ru/a21/1905/fe/eab8389bb4bc.jpg Скачать фильм Спасти или погибнуть через торрент бесплантно в хорошем качестве Описание: Франк - обычный парижский пожарный и счастливый семьянин, отец близнецов. Во время очередного вызова он жертвует собой ради ... 10 10 2
Торрент: Зарегистрирован [2019-05-01 19:35] · скачан: 18 раз
Статус: # сомнительно
Размер: 5.92 GB
Как cкачать? Как скачать Спасти или погибнуть через торрент | qTorrent

% Раздел Тема Автор DL S | L
T Фильмы (мультфильмы) cо спонсором показа (Новинки AVI/MKV) [ 1.46 GB ] Спасти или погибнуть / Sauver ou périr [2018 HDRip] MVO ["Синема УС"] bober100 Скачать
1 | 0

28-11-2019 20:33  

Отключить всю рекламу на сайте

    Дорогой пользователь! Огромная просьба, поблагодарите релизера, оцените раздачу и оставьте свои комментарий, если Вы скачали Спасти или погибнуть через торрент бесплатно! Внесите свою лепту в развитие PiratBit!
    Комментировать посты могут только пользователи прошедшие не сложную регистрацию
    Показать сообщения:    

    Спасти или погибнуть через торрент
    Скачать бесплатно Спасти или погибнуть
    Спасти или погибнуть скачать торрент
    Спасти или погибнуть смотреть онлайн
    Cкачать фильм Спасти или погибнуть бесплатно
    Спасти или погибнуть скачать торрент в хорошем качестве
    Спасти или погибнуть смотреть онлайн бесплатно в хорошем качестве


    Вы не можете начинать темы
    Вы не можете отвечать на сообщения
    Вы не можете редактировать свои сообщения
    Вы не можете удалять свои сообщения
    Вы не можете голосовать в опросах
    Вы не можете прикреплять файлы к сообщениям
    Вы можете скачивать файлы