MEGA SALE -50% FORZA HORIZON 4 ULTIMATE+ВСЕ DLC+ОНЛАЙН всего за 599р. 299 руб. (супер цена). Внимание количество ограничено!!!

iTunes

1+1

iTunes

мы

iTunes

1

iTunes

Чернобыль

iTunes

Ральф против интернета

Лицензия

ПШазам

Лицензия

Игра престолов

Лицензия

30
pack

ВАЖНО

!!Акция!!

Alien_RageХит недели

RePack

Resident Evil 21

ИГРА 18+

pack

RePack

Metro:Exodus

!!Акция!!

Alien_Rage

RePack

fifa19

RePack

Assassins Creed: Odyssey

RePack

NEED FOR SPEED™ PAYBACK

3 сезон

9 сезон

Бесстыжие 9 сезон

Все сериалы

все сериалы на PB.wtf

RePack

FAR CRY 5
Ребята, катастрофически не хватает 7730р. для оплаты серверов за АВГУСТ (всвязи с блокировками трафик упал в 3 раза), 1-2р., выручайте.
  

Балканский рубеж (Андрей Волгин) [2019, боевик, драма, WEB-DL 720p] [iTunes] pb.wtf

Балканский рубеж через торрент pb.wtf

Раздают: 6 [ 0 KB/s ]
Размер: 4.64 GB | Добавлен: 4 мес. 13 д. назад | Торрент скачан:471 раз
Скачать  

02-05-2019 00:13 Балканский рубеж Скачать торрент  

Балканский рубеж Год выпуска: 2019
Страна: Россия, Сербия
Жанр: боевик, драма
Продолжительность: 02:30:35
Перевод: Не требуется | iTunes
Субтитры: отсутствуют

Режиссер: Андрей Волгин

rating

В ролях:

Антон Пампушный, Гоша Куценко, Милош Бикович, Милена Радулович, Гойко Митич, Равшана Куркова, Дмитрий Фрид, Александар Сречкович, Светлана Чуйкина, Миодраг Радонич

Описание:

Югославия. 1999 год. Российская спецгруппа получает приказ взять под контроль аэродром Слатина в Косово и удерживать его до прихода подкрепления. Но этот стратегический объект крайне важен албанскому полевому командиру и натовским генералам. Группа вынуждена принять неравный бой с террористами. К аэродрому устремляются российские миротворцы и силы НАТО. Мир вновь близок к большой войне. Но командиру спецгруппы Андрею Шаталову не до политики: в аэропорту среди заложников его любимая девушка Ясна...

Качество: WEB-DL 720p
Формат: MKV

Видео: MPEG-4 AVC, ~ 3938 Кбит/с, 1280x536
Аудио: Русский (AC3, 6 ch, 384 Кбит/с)
скриншот   скриншот   скриншот   скриншот  скриншот  

Общее
Уникальный идентификатор : 254479457492671710434758937136549232717 (0xBF72F5F32A465A87A42571505526804D)
Полное имя : D:\Balkanskiy.Rubezh.2019.O.WEB-DL.720p.ELEKTRI4KA.UNIONGANG.mkv
Формат : Matroska
Версия формата : Version 2
Размер файла : 4,64 Гбайт
Продолжительность : 2 ч. 30 м.
Общий поток : 4410 Кбит/сек
Название фильма : Балканский рубеж (2019) UNIONGANG
Дата кодирования : UTC 2019-05-01 18:45:14
Программа кодирования : mkvmerge v5.6.0 ('Kenya Kane') built on Jun 29 2012 15:01:44
Библиотека кодирования : libebml v1.2.3 + libmatroska v1.3.0

Видео
Идентификатор : 1
Формат : AVC
Формат/Информация : Advanced Video Codec
Профиль формата : Main@L3.1
Параметр CABAC формата : Нет
Параметр RefFrames формата : 2 кадра
Режим смешивания : Header stripping
Идентификатор кодека : V_MPEG4/ISO/AVC
Продолжительность : 2 ч. 30 м.
Битрейт : 3938 Кбит/сек
Ширина : 1280 пикселей
Высота : 536 пикселей
Соотношение сторон : 2,40:1
Режим частоты кадров : Постоянный
Частота кадров : 24,000 кадра/сек
Цветовое пространство : YUV
Субдискретизация насыщенности : 4:2:0
Битовая глубина : 8 бит
Тип развёртки : Прогрессивная
Бит/(Пиксели*Кадры) : 0.239
Размер потока : 4,14 Гбайт (89%)
Заголовок : Балканский рубеж (2019) WEB-DL 720p ELEKTRI4KA
Язык : English
Default : Да
Forced : Нет
Цветовой диапазон : Limited
Основные цвета : BT.709
Характеристики трансфера : BT.709
Коэффициенты матрицы : BT.709

Аудио
Идентификатор : 2
Формат : AC-3
Формат/Информация : Audio Coding 3
Расширение режима : CM (complete main)
Параметр Endianness формата : Big
Режим смешивания : Header stripping
Идентификатор кодека : A_AC3
Продолжительность : 2 ч. 30 м.
Вид битрейта : Постоянный
Битрейт : 384 Кбит/сек
Каналы : 6 каналов
Расположение каналов : Front: L C R, Side: L R, LFE
Частота : 48,0 КГц
Частота кадров : 31,250 кадров/сек (1536 spf)
Метод сжатия : С потерями
Размер потока : 414 Мбайт (9%)
Заголовок : iTunes
Язык : Russian
Default : Да
Forced : Нет

Меню
00:00:00.000 : en:Глава 1
00:08:07.583 : en:Глава 2
00:16:05.374 : en:Глава 3
00:24:34.164 : en:Глава 4
00:32:34.704 : en:Глава 5
00:40:46.079 : en:Глава 6
00:48:54.370 : en:Глава 7
00:57:07.203 : en:Глава 8
01:05:33.661 : en:Глава 9
01:15:00.618 : en:Глава 10
01:23:12.534 : en:Глава 11
01:31:20.659 : en:Глава 12
01:39:42.491 : en:Глава 13
01:47:49.948 : en:Глава 14
01:56:03.614 : en:Глава 15
02:04:19.739 : en:Глава 16
02:13:00.239 : en:Глава 17
02:21:11.030 : en:Глава 18

pb.wtf



Скачать Балканский рубеж через торрент https://d.radikal.ru/d25/1904/34/2b1bc647d6b3.png Скачать фильм Балканский рубеж через торрент бесплантно в хорошем качестве Описание: Югославия. 1999 год. Российская спецгруппа получает приказ взять под контроль аэродром Слатина в Косово и удерживать его до ... 9.3 10 12
Info! Золотая раздача, скачанное не засчитывается.
Торрент: Зарегистрирован [2019-05-02 00:13] · скачан: 471 раз
Статус: √ проверено
Размер: 4.64 GB
Как cкачать? Как скачать Балканский рубеж через торрент | qTorrent

% Раздел Тема Автор DL S | L
Наши новые фильмы 2018-2019 [ 2.9 GB ] Балканский рубеж [2019 BDRip-AVC] sokol_ok Скачать
44 | 1
Наши новые фильмы 2018-2019 [ 2.81 GB ] Балканский рубеж [2019 BDRip-AVC] 2x [ ] bober100 Скачать
4 | 0
Наши новые фильмы 2018-2019 [ 1.47 GB ] Балканский рубеж [2019 BDRip-AVC] sokol_ok Скачать
55 | 4
Наши новые фильмы 2018-2019 [ 2.11 GB ] Балканский рубеж [2019 BDRip] [Русский] Twi7ter Скачать
36 | 2
Наши фильмы (Blu-ray, BD-Remux, HDDVD) [ 38.07 GB ] Балканский рубеж [2019 BDRemux 1080p] [FRA Transfer] sheker187 Скачать
1 | 0
Наши фильмы (HD, WEB-DL 720p, 1080p) [ 5.37 GB ] Балканский рубеж [2019 BDRip 720p] bober100 Скачать
5 | 0
Наши новые фильмы 2018-2019 [ 1.46 GB ] Балканский рубеж [2019 BDRip] [Русский] Twi7ter Скачать
26 | 1


>> Регистрируемся здесь <<






Отзывы и комментарии о схеме читаем и пишем здесь: ---> Отзывы и комментарии о схеме

Новые благодарочки в телеграм довольных пользователей:
скриншот   скриншот   скриншот   скриншот   скриншот
    Дорогой пользователь! Огромная просьба, поблагодарите релизера, оцените раздачу и оставьте свои комментарий, если Вы скачали Балканский рубеж через торрент бесплатно! Внесите свою лепту в развитие PiratBit!
    Комментировать посты могут только пользователи прошедшие не сложную регистрацию
    Показать сообщения:    

    Балканский рубеж через торрент
    Скачать бесплатно Балканский рубеж
    Балканский рубеж скачать торрент
    Балканский рубеж смотреть онлайн
    Cкачать фильм Балканский рубеж бесплатно
    Балканский рубеж скачать торрент в хорошем качестве
    Балканский рубеж смотреть онлайн бесплатно в хорошем качестве


    Вы не можете начинать темы
    Вы не можете отвечать на сообщения
    Вы не можете редактировать свои сообщения
    Вы не можете удалять свои сообщения
    Вы не можете голосовать в опросах
    Вы не можете прикреплять файлы к сообщениям
    Вы можете скачивать файлы