Ссылка на приватное зеркало нашего сайта всего за 1$. Внимание количество ограничено!!!

2 сезон

iTunes

1 сезон

1

iTunes

iTunes

iTunes

1 сезон

RePack

30

ИГРА 18+

pack

ВАЖНО

!!Акция!!

Alien_RageХит недели

RePack

MK11
pack

Забери бонус

RePack

jed

!!Акция!!

Alien_Rage

RePack

fifa19

RePack

Assassins Creed: Odyssey

RePack

NEED FOR SPEED™ PAYBACK

4 сезон

9 сезон

Бесстыжие 9 сезон

Все сериалы

все сериалы на PB.wtf

RePack

FAR CRY 5
  

Подсудимый / Сезон: 1 / Серии: 1-16 из 16 (Максим Бриус) [2019, Детектив, драма, HDTV 1080p] pb.wtf

Подсудимый через торрент pb.wtf

Размер: 38.92 GB | Добавлен: 1 год 5 мес. назад | Торрент скачан:33 раза
Скачать  

02-05-2019 00:25 Подсудимый Скачать торрент  

Подсудимый Год выпуска: 2019
Страна: Россия
Жанр: Детектив, драма
Продолжительность: ~ 00:48:00
Субтитры: отсутствуют

Режиссер: Максим Бриус



В ролях:

Дмитрий Паламарчук, Пётр Рыков, Елена Вожакина, Андрей Терентьев, Владимир Литвинов, Антон Гуляев, Мария Русских, Андрей Марусин, Александр Рыбаков, Игорь Денисов, Владимир Чернышов, Вадим Бурлаков, Пётр Терещенко, Андрей Аладьин, Виталий Бисеров, Руслан Китайгородский

Описание:

Жесткий и неподкупный следователь СК Андрей Климов отказывается от выгодных предложений в частных компаниях или продвижения по карьерной лестнице. Его главная цель в работе — разоблачение преступников вне зависимости от их финансового положения и статуса в обществе. У Климова дружная, образцовая семья — любимая жена и красавица-дочка. Он уверен в себе и близких и не предполагает, что скоро его мир рухнет в одночасье. Однажды, уснув у себя дома, Климов просыпается в тюремной камере. Через несколько часов следователь узнает, что его обвиняют в убийстве жены и дочери. Еще один удар Климову наносит его собственная память: потрясенный мужчина не может вспомнить ничего за последние четыре месяца. Единственное, что он точно знает — это детали одного из своих расследований. В свое время ему поручили дело о гибели президента солидной компании, в убийстве которого Климов подозревал его брата-близнеца. Связаны ли между собой обстоятельства расследуемого дела и смерть его близких? Кто на самом деле убил его жену? Почему он взял вину на себя?

Качество: HDTV 1080p
Формат: MKV

Видео: AVC, 1920x1080 (16:9), 7050 kbps, 25 fps, 0,136 bpp
Аудио: 48 kHz, АС3, 2/0 (L,R), ~192.00 kbps avg


Релиз от:
скриншот  скриншот  скриншот  скриншот  скриншот  

General
Unique ID : 227852850096177645722747794379308718481 (0xAB6ADCD9584D6A6EAB4190A279E2D991)
Complete name : E:Запись с твPodsudimyj 2019 HDTV 1080p.R.G.GeneralfilmPodsudimyj.s01.e01.2019.HDTV 1080p.by.White Smoke.R.G.Generalfilm.mkv
Format : Matroska
Format version : Version 4 / Version 2
File size : 2.57 GiB
Duration : 50 min 49 s
Overall bit rate mode : Constant
Overall bit rate : 7 239 kb/s
Movie name : Podsudimyj.s01.e01.2019.HDTV 1080p.by.White Smoke.R.G.Generalfilm.mkv
Encoded date : UTC 2019-04-23 10:38:57
Writing application : mkvmerge v6.8.0 ('Theme for Great Cities') 64bit built on Mar 2 2014 21:34:26
Writing library : libebml v1.3.0 + libmatroska v1.4.1
Cover : Yes
Attachments : cover.jpg

Video
ID : 1
Format : AVC
Format/Info : Advanced Video Codec
Format profile : High@L4.1
Format settings : CABAC / 3 Ref Frames
Format settings, CABAC : Yes
Format settings, ReFrames : 3 frames
Codec ID : V_MPEG4/ISO/AVC
Duration : 50 min 49 s
Bit rate mode : Constant
Bit rate : 7 051 kb/s
Width : 1 920 pixels
Height : 1 080 pixels
Display aspect ratio : 16:9
Frame rate mode : Constant
Frame rate : 25.000 FPS
Standard : PAL
Color space : YUV
Chroma subsampling : 4:2:0
Bit depth : 8 bits
Scan type : Progressive
Bits/(Pixel*Frame) : 0.136
Stream size : 2.45 GiB (95%)
Default : Yes
Forced : No
Color range : Limited
Color primaries : BT.709
Transfer characteristics : BT.709
Matrix coefficients : BT.709

Audio
ID : 2
Format : AC-3
Format/Info : Audio Coding 3
Commercial name : Dolby Digital
Codec ID : A_AC3
Duration : 50 min 49 s
Bit rate mode : Constant
Bit rate : 192 kb/s
Channel(s) : 2 channels
Channel layout : L R
Sampling rate : 48.0 kHz
Frame rate : 31.250 FPS (1536 SPF)
Bit depth : 16 bits
Compression mode : Lossy
Stream size : 69.8 MiB (3%)
Service kind : Complete Main
Default : Yes
Forced : No

pb.wtf



Скачать Подсудимый через торрент http://img16.lostpic.net/2019/04/22/0f328195864150e2c341ab24feb95e2a.jpg Скачать фильм Подсудимый через торрент бесплантно в хорошем качестве Описание: Жесткий и неподкупный следователь СК Андрей Климов отказывается от выгодных предложений в частных компаниях или продвижения по ... 10 10 4
Info! Золотая раздача, скачанное не засчитывается.
Торрент: Зарегистрирован [2019-05-02 00:25] · скачан: 33 раз
Статус: √ проверено
Размер: 38.92 GB
Как cкачать? Как скачать Подсудимый через торрент | qTorrent

% Раздел Тема Автор DL S | L
Наши сериалы [ 20.06 GB ] Подсудимый / Сезон: 1 / Серии: 1-16 из 16 [2019 WEBRip 720p] bober100 Скачать
1 | 0
Наши сериалы [ 11.91 GB ] Подсудимый / Сезон: 1 / Серии: 1-16 из 16 [2019 WEBRip-AVC] bober100 Скачать
1 | 0
Наши сериалы [ 9.01 GB ] Подсудимый / Сезон: 1 / Серии: 1-16 из 16 [2019 WEBRip] bober100 Скачать
2 | 0
Наши сериалы [ 33.52 GB ] Подсудимый / Сезон: 1 / Серии: 1-16 из 16 [2019 WEB-DL 1080p] bober100 Скачать
1 | 0
Наши сериалы [ 9.37 GB ] Подсудимый / Сезон: 1 / Серии: 1-16 из 16 [2019 SATRip] bober100 Скачать
1 | 0

28-11-2019 20:33  

Отключить всю рекламу на сайте

    Дорогой пользователь! Огромная просьба, поблагодарите релизера, оцените раздачу и оставьте свои комментарий, если Вы скачали Подсудимый через торрент бесплатно! Внесите свою лепту в развитие PiratBit!
    Комментировать посты могут только пользователи прошедшие не сложную регистрацию
    Показать сообщения:    

    Подсудимый через торрент
    Скачать бесплатно Подсудимый
    Подсудимый скачать торрент
    Подсудимый смотреть онлайн
    Cкачать фильм Подсудимый бесплатно
    Подсудимый скачать торрент в хорошем качестве
    Подсудимый смотреть онлайн бесплатно в хорошем качестве


    Вы не можете начинать темы
    Вы не можете отвечать на сообщения
    Вы не можете редактировать свои сообщения
    Вы не можете удалять свои сообщения
    Вы не можете голосовать в опросах
    Вы не можете прикреплять файлы к сообщениям
    Вы можете скачивать файлы