MEGA SALE -50% FORZA HORIZON 4 ULTIMATE+ВСЕ DLC+ОНЛАЙН всего за 599р. 299 руб. (супер цена). Внимание количество ограничено!!!

iTunes

1+1

iTunes

мы

iTunes

1

iTunes

Чернобыль

iTunes

Ральф против интернета

Лицензия

ПШазам

Лицензия

Игра престолов

Лицензия

30
pack

ВАЖНО

!!Акция!!

Alien_RageХит недели

RePack

Resident Evil 21

ИГРА 18+

pack

RePack

Metro:Exodus

!!Акция!!

Alien_Rage

RePack

fifa19

RePack

Assassins Creed: Odyssey

RePack

NEED FOR SPEED™ PAYBACK

3 сезон

9 сезон

Бесстыжие 9 сезон

Все сериалы

все сериалы на PB.wtf

RePack

FAR CRY 5
Ребята, катастрофически не хватает 7730р. для оплаты серверов за АВГУСТ (всвязи с блокировками трафик упал в 3 раза), 1-2р., выручайте.
  

Снегоуборщик / Cold Pursuit (Ханс Петтер Муланд) [2019, боевик, WEB-DL 1080p] MVO [CВ Студия] pb.wtf

Снегоуборщик через торрент pb.wtf

Раздают: 11 [ 0 KB/s ]
Размер: 4.28 GB | Добавлен: 4 мес. 14 д. назад | Торрент скачан:1133 раза
Скачать  

02-05-2019 14:14 Снегоуборщик Скачать торрент  

Снегоуборщик / Cold Pursuit
««Он убирает снег и… наркодилеров»»

Год выпуска: 2019
Страна: Великобритания,
Жанр: боевик,
Продолжительность: 01:58:59
Перевод: Профессиональный многоголосый [CВ Студия]
Примечание: Релиз без рекламы
Субтитры: русские (Full (Focs)), английские (Full)
Режиссер: Ханс Петтер Муланд
В ролях:

Лиам Нисон (Nels Coxman), Лора Дерн (Grace Coxman), Эмми Россам (Kim Dash), Том Бейтман (Trevor «Viking» Calcote), Уильям Форсайт (Brock), Джулия Джонс (Aya), Майкл Нисон (Kyle Coxman), Майкл Эклунд (Speedo), Брэдли Страйкер (Limbo), Уэсли МакИннес (Dante), Доменик Ломбардоззи (Mustang), Николас Холмс (Ryan)
Описание:
Мистер Коксман - примерный семьянин и уважаемый гражданин, размеренная жизнь которого заканчивается, когда наркоторговцы убивают его сына. В поисках справедливости он с ледяным хладнокровием начинает изощренно убирать бандитов одного за другим.
Рейтинг:
rating
MPAA: R - Лицам до 17 лет обязательно присутствие взрослого
Качество: WEB-DL 1080p
Формат: MKV
Видео: AVC, 1920x800 (2.40:1), 4470 kbps, 23,976 fps, 0,121 bpp
Аудио №1: русский / AC3 / 2.0 / 48 kHz / 192 kbps / |MVO, CВ Студия|
Аудио №2: английский / AC3 / 5.1 / 48 kHz / 384 kbps /
Навигация по главам: есть
Сэмпл
General
Unique ID : 20920477375112570607966587703219412219 (0xFBD232B843F5F683DD488C835035CFB)
Complete name : D:\Cold Pursuit.2019.WEB-DL.1080p.mkv
Format : Matroska
Format version : Version 4 / Version 2
File size : 4.28 GiB
Duration : 1 h 58 min
Overall bit rate : 5 149 kb/s
Movie name : Cold Pursuit.2019.WEB-DL.1080p
Encoded date : UTC 2019-05-01 23:45:12
Writing application : mkvmerge v23.0.0 ('The Bride Said No') 64-bit
Writing library : libebml v1.3.6 + libmatroska v1.4.9

Video
ID : 1
Format : AVC
Format/Info : Advanced Video Codec
Format profile : High@L4
Format settings, CABAC : Yes
Format settings, ReFrames : 5 frames
Codec ID : V_MPEG4/ISO/AVC
Duration : 1 h 58 min
Bit rate : 4 471 kb/s
Width : 1 920 pixels
Height : 800 pixels
Display aspect ratio : 2.40:1
Frame rate mode : Constant
Frame rate : 23.976 (24000/1001) FPS
Color space : YUV
Chroma subsampling : 4:2:0
Bit depth : 8 bits
Scan type : Progressive
Bits/(Pixel*Frame) : 0.121
Stream size : 3.72 GiB (87%)
Language : English
Default : Yes
Forced : No
Color range : Limited
Color primaries : BT.709
Transfer characteristics : BT.709
Matrix coefficients : BT.709

Audio #1
ID : 2
Format : AC-3
Format/Info : Audio Coding 3
Mode extension : CM (complete main)
Format settings, Endianness : Big
Codec ID : A_AC3
Duration : 1 h 58 min
Bit rate mode : Constant
Bit rate : 192 kb/s
Channel(s) : 2 channels
Channel positions : Front: L R
Sampling rate : 48.0 kHz
Frame rate : 31.250 FPS (1536 spf)
Compression mode : Lossy
Delay relative to video : -42 ms
Stream size : 163 MiB (4%)
Title : MVO | СВ Студия
Language : Russian
Default : Yes
Forced : No

Audio #2
ID : 3
Format : AC-3
Format/Info : Audio Coding 3
Mode extension : CM (complete main)
Format settings, Endianness : Big
Codec ID : A_AC3
Duration : 1 h 58 min
Bit rate mode : Constant
Bit rate : 384 kb/s
Channel(s) : 6 channels
Channel positions : Front: L C R, Side: L R, LFE
Sampling rate : 48.0 kHz
Frame rate : 31.250 FPS (1536 spf)
Compression mode : Lossy
Delay relative to video : -42 ms
Stream size : 327 MiB (7%)
Language : English
Default : No
Forced : No

Text #1
ID : 4
Format : UTF-8
Codec ID : S_TEXT/UTF8
Codec ID/Info : UTF-8 Plain Text
Title : Full (Focs)
Language : Russian
Default : No
Forced : No

Text #2
ID : 5
Format : UTF-8
Codec ID : S_TEXT/UTF8
Codec ID/Info : UTF-8 Plain Text
Title : Full
Language : English
Default : No
Forced : No

Menu
00:00:00.000 : en:1
00:07:36.000 : en:2
00:16:32.000 : en:3
00:24:06.000 : en:4
00:33:07.000 : en:5
00:43:00.000 : en:6
00:51:34.000 : en:7
01:01:28.000 : en:8
01:10:00.000 : en:9
01:19:16.000 : en:10
01:29:48.000 : en:11
01:37:28.000 : en:12
01:45:32.000 : en:13
01:50:14.000 : en:14
скриншот   скриншот   скриншот   скриншот  
pb.wtf



Скачать Снегоуборщик через торрент http://trueimages.ru/img/05/a0/4a9facc5.jpg Скачать фильм Снегоуборщик через торрент бесплантно в хорошем качестве Описание: Мистер Коксман - примерный семьянин и уважаемый гражданин, размеренная жизнь которого заканчивается, когда наркоторговцы убивают ... 9.7 10 31
Info! Золотая раздача, скачанное не засчитывается.
Торрент: Зарегистрирован [2019-05-02 14:14] · скачан: 1 133 раз
Статус: T временная
Размер: 4.28 GB
Как cкачать? Как скачать Снегоуборщик через торрент | qTorrent

% Раздел Тема Автор DL S | L
Фильмы (HD 720p, 1080p) (48-60 fps) [ 16.12 GB ] Снегоуборщик / Cold Pursuit [2019 BDRip 1080p 60 fps] sheker187 Скачать
2 | 1
Фильмы 2019 [DVDrip, WEB-DLRip, HDrip] (DUB, MVO) [ 1.46 GB ] Снегоуборщик / Cold Pursuit [2019 HDRip] killermax2013 Скачать
43 | 0
Фильмы [HD 720p, 1080p] (Хороший звук DUB, MVO) [ 11.74 GB ] Снегоуборщик / Cold Pursuit [2019 BDRip 1080p] + [MVO] killermax2013 Скачать
11 | 0
Фильмы [HD 720p, 1080p] (Хороший звук DUB, MVO) [ 6.31 GB ] Снегоуборщик / Cold Pursuit [2019 BDRip 720p ] Quadropedia Скачать
4 | 0
Ultra HD (UHD: 2K, 4K, 8K) — видео сверхвысокой чёткости [ 74.22 GB ] Снегоуборщик / Cold Pursuit [2019 UHD Blu-ray 2160p] [Dolby Vision] sheker187 Скачать
3 | 0
Ultra HD (UHD: 2K, 4K, 8K) — видео сверхвысокой чёткости [ 17.12 GB ] Снегоуборщик / Cold Pursuit [2019 UHD BDRip 2160p] + MVO [СВ Студия] sheker187 Скачать
1 | 0
Ultra HD (UHD: 2K, 4K, 8K) — видео сверхвысокой чёткости [ 55.88 GB ] Снегоуборщик / Cold Pursuit [2019 UHD BDRemux 2160p] + MVO [СВ Студия] sheker187 Скачать
2 | 1


>> Регистрируемся здесь <<






Отзывы и комментарии о схеме читаем и пишем здесь: ---> Отзывы и комментарии о схеме

Новые благодарочки в телеграм довольных пользователей:
скриншот   скриншот   скриншот   скриншот   скриншот

02-05-2019 15:47 Снегоуборщик Скачать торрент  

очень слабенькоpb.wtf



02-05-2019 20:26 Снегоуборщик Скачать торрент  

Нуднятина!pb.wtf



07-05-2019 01:42 Снегоуборщик Скачать торрент  

iwanich писал(а):

Нуднятина!

ну смотри иди полицейского с рублевки тогда и спокойно деградируй, путо!!!pb.wtf



14-05-2019 05:19 Снегоуборщик Скачать торрент  

maugli89 писал(а):

iwanich писал(а):

Нуднятина!

ну смотри иди полицейского с рублевки тогда и спокойно деградируй, путо!!!

Или Дом-2))))))))))pb.wtf



    Дорогой пользователь! Огромная просьба, поблагодарите релизера, оцените раздачу и оставьте свои комментарий, если Вы скачали Снегоуборщик через торрент бесплатно! Внесите свою лепту в развитие PiratBit!
    Комментировать посты могут только пользователи прошедшие не сложную регистрацию
    Показать сообщения:    

    Снегоуборщик через торрент
    Скачать бесплатно Снегоуборщик
    Снегоуборщик скачать торрент
    Снегоуборщик смотреть онлайн
    Cкачать фильм Снегоуборщик бесплатно
    Снегоуборщик скачать торрент в хорошем качестве
    Снегоуборщик смотреть онлайн бесплатно в хорошем качестве


    Вы не можете начинать темы
    Вы не можете отвечать на сообщения
    Вы не можете редактировать свои сообщения
    Вы не можете удалять свои сообщения
    Вы не можете голосовать в опросах
    Вы не можете прикреплять файлы к сообщениям
    Вы можете скачивать файлы