Ссылка на приватное зеркало нашего сайта всего за 1$. Внимание количество ограничено!!!

2 сезон

iTunes

1 сезон

1

2 сезон

2 сезон

iTunes

1 сезон

RePack

30

Ultimate

ВАЖНО

ИГРА 18+

pack

RePack

MK11
pack

Забери бонус

RePack

jed

!!Акция!!

Alien_Rage

RePack

fifa19

RePack

Assassins Creed: Odyssey

RePack

NEED FOR SPEED™ PAYBACK

4 сезон

9 сезон

Бесстыжие 9 сезон

Все сериалы

все сериалы на PB.wtf

RePack

FAR CRY 5
  

Защитник / Hakan: Muhafiz / The Protector / Сезон: 2 / Серии: 1-8 из 8 (Умут Арал, Гонендж Уяник, Джан Эвренол) [2019, фантастика, фэнтези, боевик, WEB-DL 1080p] [MVO] (АРК-ТВ Studio) pb.wtf

Защитник через торрент pb.wtf

Размер: 12.87 GB | Добавлен: 1 год 6 мес. назад | Торрент скачан:24 раза
Скачать  

02-05-2019 17:56 Защитник Скачать торрент  

Защитник | Hakan: Muhafiz | The Protector
Год выпуска: 2019
Производство: Турция, O3 Medya, Netflix Studios
Жанр: фантастика, фэнтези, боевик
Продолжительность: ~00:45:00

Перевод: Профессиональный (многоголосый закадровый) | АРК-ТВ Studio и VSI International

Режиссер: Умут Арал, Гонендж Уяник, Джан Эвренол
В ролях: Чагатай Улусой (Hakan), Айча Айшин Туран (Leyla), Хазар Эргючлю (Zeynep), Окан Ялабык (Faysal), Мехмет Куртулуш (Mazhar), Юрдаэр Окур (Kemal), Фатих Дёнмез (Orkun), Мехмет Иилмаз Ак (Tekin), Джихат Сувариоглу (Yasin), Cem Yigit Uzümoglu (Emir), Helin Kandemir (Ceylan), Джанкат Айдос (Memo)

Описание: Простой парень Хакан узнаёт, что его миссия — оберегать Стамбул. Он и не собирался становиться героем, но когда узнаёт, что город может быть разрушен некими бессмертными из прошлого, то у парня не остается другого выбора.



Качество: WEB-DL 1080p
Контейнер: MKV
Видео: AVC, 1920x1080 (16:9), 24 fps, ~4220 kbps
Аудио №1: E-AC3 5.1, 48 kHz, 640 kbps
Аудио №2: E-AC3 5.1, 48 kHz, 640 kbps
Субтитры: Русские (Forced, Full), турецкие, английские
Реклама: отсутствует

Релиз: Wilmots@EniaHD
General
Unique ID : 102748432141392885568835423811638618394 (0x4D4CA0D3068C906B8D4C6B7C1E9F691A)
Complete name : The.Protector.S02.1080p.NF.WEB-DL.DDP5.1.x264-EniaHD\The.Protector.S02E06.1080p.NF.WEB-DL.DDP5.1.x264-EniaHD.mkv
Format : Matroska
Format version : Version 4 / Version 2
File size : 1.93 GiB
Duration : 50 min 32 s
Overall bit rate mode : Variable
Overall bit rate : 5 461 kb/s
Movie name : The.Protector.S02E06.1080p.NF.WEB-DL.DDP5.1.x264-EniaHD
Encoded date : UTC 2019-04-28 05:29:39
Writing application : mkvmerge v33.1.0 ('Primrose') 64-bit
Writing library : libebml v1.3.7 + libmatroska v1.5.0

Video
ID : 1
Format : AVC
Format/Info : Advanced Video Codec
Format profile : Main@L4
Format settings : CABAC / 3 Ref Frames
Format settings, CABAC : Yes
Format settings, ReFrames : 3 frames
Codec ID : V_MPEG4/ISO/AVC
Duration : 50 min 32 s
Bit rate mode : Variable
Bit rate : 4 220 kb/s
Maximum bit rate : 6 330 kb/s
Width : 1 920 pixels
Height : 1 080 pixels
Display aspect ratio : 16:9
Frame rate mode : Constant
Frame rate : 24.000 FPS
Color space : YUV
Chroma subsampling : 4:2:0
Bit depth : 8 bits
Scan type : Progressive
Bits/(Pixel*Frame) : 0.085
Stream size : 1.48 GiB (77%)
Writing library : x264 core 148 r2715 7e75228
Encoding settings : cabac=1 / ref=3 / deblock=1:0:0 / analyse=0x1:0x111 / me=umh / subme=10 / psy=1 / psy_rd=1.00:0.00 / mixed_ref=1 / me_range=24 / chroma_me=1 / trellis=2 / 8x8dct=0 / cqm=0 / deadzone=21,11 / fast_pskip=1 / chroma_qp_offset=-2 / threads=8 / lookahead_threads=1 / sliced_threads=0 / nr=0 / decimate=1 / interlaced=0 / bluray_compat=0 / stitchable=1 / constrained_intra=0 / bframes=2 / b_pyramid=0 / b_adapt=2 / b_bias=0 / direct=3 / weightb=1 / open_gop=0 / weightp=2 / keyint=48 / keyint_min=25 / scenecut=0 / intra_refresh=0 / rc_lookahead=48 / rc=2pass / mbtree=1 / bitrate=4220 / ratetol=1.0 / qcomp=0.50 / qpmin=6 / qpmax=51 / qpstep=4 / cplxblur=20.0 / qblur=0.5 / vbv_maxrate=6330 / vbv_bufsize=8440 / nal_hrd=vbr / filler=0 / ip_ratio=1.40 / aq=1:1.00
Default : Yes
Forced : No

Audio #1
ID : 2
Format : E-AC-3
Format/Info : Enhanced Audio Coding 3
Codec ID : A_EAC3
Duration : 50 min 32 s
Bit rate mode : Constant
Bit rate : 640 kb/s
Channel(s) : 6 channels
Channel positions : Front: L C R, Side: L R, LFE
Sampling rate : 48.0 kHz
Frame rate : 187.500 FPS (256 SPF)
Compression mode : Lossy
Stream size : 231 MiB (12%)
Title : Russian
Language : Russian
Service kind : Complete Main
Default : Yes
Forced : No

Audio #2
ID : 3
Format : E-AC-3
Format/Info : Enhanced Audio Coding 3
Codec ID : A_EAC3
Duration : 50 min 32 s
Bit rate mode : Constant
Bit rate : 640 kb/s
Channel(s) : 6 channels
Channel positions : Front: L C R, Side: L R, LFE
Sampling rate : 48.0 kHz
Frame rate : 187.500 FPS (256 SPF)
Compression mode : Lossy
Stream size : 231 MiB (12%)
Title : Turkish
Language : Turkish
Service kind : Complete Main
Default : No
Forced : No

Text #1
ID : 4
Format : UTF-8
Codec ID : S_TEXT/UTF8
Codec ID/Info : UTF-8 Plain Text
Duration : 1 s 750 ms
Bit rate : 205 b/s
Count of elements : 1
Stream size : 45.0 Bytes (0%)
Title : Russian [Forced]
Language : Russian
Default : Yes
Forced : Yes

Text #2
ID : 5
Format : UTF-8
Codec ID : S_TEXT/UTF8
Codec ID/Info : UTF-8 Plain Text
Duration : 49 min 52 s
Bit rate : 69 b/s
Count of elements : 571
Stream size : 25.3 KiB (0%)
Title : Russian [Full]
Language : Russian
Default : No
Forced : No

Text #3
ID : 6
Format : UTF-8
Codec ID : S_TEXT/UTF8
Codec ID/Info : UTF-8 Plain Text
Duration : 47 min 30 s
Bit rate : 49 b/s
Count of elements : 563
Stream size : 17.2 KiB (0%)
Title : English
Language : English
Default : No
Forced : No

Text #4
ID : 7
Format : UTF-8
Codec ID : S_TEXT/UTF8
Codec ID/Info : UTF-8 Plain Text
Duration : 47 min 17 s
Bit rate : 56 b/s
Count of elements : 642
Stream size : 19.5 KiB (0%)
Title : Turkish [SDH]
Language : Turkish
Default : No
Forced : No
скриншот  скриншот  скриншот  
pb.wtf



Скачать Защитник через торрент https://i1.imageban.ru/out/2019/04/30/9ad5ee3ea4bcbfce7f03ea2f5747db28.jpg Скачать фильм Защитник через торрент бесплантно в хорошем качестве Описание: Простой парень Хакан узнаёт, что его миссия — оберегать Стамбул. Он и не собирался становиться героем, но когда узнаёт, что город ... 5 10 1
Торрент: Зарегистрирован [2019-05-02 17:56] · скачан: 24 раз
Статус: √ проверено
Размер: 12.87 GB
Как cкачать? Как скачать Защитник через торрент | qTorrent

28-11-2019 20:33  

Отключить всю рекламу на сайте

    Дорогой пользователь! Огромная просьба, поблагодарите релизера, оцените раздачу и оставьте свои комментарий, если Вы скачали Защитник через торрент бесплатно! Внесите свою лепту в развитие PiratBit!
    Комментировать посты могут только пользователи прошедшие не сложную регистрацию
    Показать сообщения:    

    Защитник через торрент
    Скачать бесплатно Защитник
    Защитник скачать торрент
    Защитник смотреть онлайн
    Cкачать фильм Защитник бесплатно
    Защитник скачать торрент в хорошем качестве
    Защитник смотреть онлайн бесплатно в хорошем качестве


    Вы не можете начинать темы
    Вы не можете отвечать на сообщения
    Вы не можете редактировать свои сообщения
    Вы не можете удалять свои сообщения
    Вы не можете голосовать в опросах
    Вы не можете прикреплять файлы к сообщениям
    Вы можете скачивать файлы