новый адрес пиратбит piratbit
MEGA NEWS Получи личный уникальный адрес сайта и защити себя от блокировок. Внимание количество ограничено!!!

iTunes

1+1

iTunes

мы

iTunes

1

iTunes

Чернобыль

iTunes

Ральф против интернета

Лицензия

ПШазам

Лицензия

Игра престолов

Лицензия

30
pack

ВАЖНО

!!Акция!!

Alien_RageХит недели

RePack

Resident Evil 21

ИГРА 18+

pack

RePack

Metro:Exodus

!!Акция!!

Alien_Rage

RePack

fifa19

RePack

Assassins Creed: Odyssey

RePack

NEED FOR SPEED™ PAYBACK

3 сезон

9 сезон

Бесстыжие 9 сезон

Все сериалы

все сериалы на PB.wtf

RePack

FAR CRY 5
Ребята, катастрофически не хватает 1900р. для оплаты серверов за АВГУСТ (всвязи с блокировками трафик упал в 3 раза), 1-2р., выручайте.
  

Шпион пошёл на Север / The Spy Gone North / Gongjak (Чжон Бин Юн) [2018, Триллер, драма, BDRip 1080p] MVO [HDrezka Studio] pb.wtf

Шпион пошёл на Север через торрент pb.wtf

Размер: 13.16 GB | Добавлен: 5 мес. 20 д. назад | Торрент скачан:31 раз
Скачать  

02-05-2019 20:45 Шпион пошёл на Север Скачать торрент  

Шпион пошёл на Север / The Spy Gone North / Gongjak
Год выпуска: 2018
Страна: Южная Корея
Жанр: Триллер, драма
Продолжительность: 02:17:33
Перевод: Профессиональный (многоголосый) | HDrezka Studio
Субтитры: английские

Режиссер: Чжон Бин Юн

rating

В ролях:

Чжон Мин Хван, Сон Мин Ли, Чжин Ун Чо, Джи Хун Чжу, Сон Ун Пак, Хё Ри Ли, Хон Фа Ким, Со Ри Чон, Чжу Бон Ки, Ын Су Ким, Чжин Ён Пак (III), Бён Мо Чхве, Со Чжин Ким, Ин У Ким, Бён Ок Ким

Описание:

Фильм, основанный на реальных событиях, произошедших в середине девяностых годов двадцатого века, рассказывает историю агента специального назначения, действующего под кодовым именем Черная Венера. Ему предстоит внедриться в элиту Северной Кореи, для того, чтобы узнать их дальнейшие планы. Дело в том, что южнокорейской разведке стало известно о наличии у главы КНДР ядерного оружия. Мужчина понимает, что если его раскроют или схватят, то правительство его страны будет все отрицать. Несмотря на многие сложности, которые ему предстоят, он берется за выполнение задания.

Качество: BDRip 1080p
Формат: MKV

Видео: MPEG-4 AVC, 12.0 Mбит/с, 1920x804, 23.976 fps
Аудио#1: Русский: AC3, 2 ch, 192 Кбит/с - HDRezka Studio
Аудио#2: Корейский: DTS, 6 ch, 1509 Кбит/с - Original
скриншот  скриншот  скриншот  скриншот  скриншот  

General
Unique ID : 163362959761346531453282862250890337401 (0x7AE68FC5121A3C5226CA1D1EEC839C79)
Complete name : G:The.Spy.Gone.North.2018.BDRip.1080p.mkv
Format : Matroska
Format version : Version 4 / Version 2
File size : 13.2 GiB
Duration : 2 h 17 min
Overall bit rate : 13.7 Mb/s
Encoded date : UTC 2019-05-02 18:12:23
Writing application : mkvmerge v20.0.0 ('I Am The Sun') 64-bit
Writing library : libebml v1.3.5 + libmatroska v1.4.8

Video
ID : 1
Format : AVC
Format/Info : Advanced Video Codec
Format profile : High@L4.1
Format settings : CABAC / 5 Ref Frames
Format settings, CABAC : Yes
Format settings, RefFrames : 5 frames
Codec ID : V_MPEG4/ISO/AVC
Duration : 2 h 17 min
Bit rate : 12.0 Mb/s
Width : 1 920 pixels
Height : 804 pixels
Display aspect ratio : 2.40:1
Frame rate mode : Constant
Frame rate : 23.976 (24000/1001) FPS
Color space : YUV
Chroma subsampling : 4:2:0
Bit depth : 8 bits
Scan type : Progressive
Bits/(Pixel*Frame) : 0.325
Stream size : 11.5 GiB (88%)
Writing library : x264 core 129 r2245 bc13772
Encoding settings : cabac=1 / ref=5 / deblock=1:-3:-3 / analyse=0x3:0x133 / me=umh / subme=11 / psy=1 / psy_rd=1.05:0.05 / mixed_ref=1 / me_range=64 / chroma_me=1 / trellis=2 / 8x8dct=1 / cqm=0 / deadzone=21,11 / fast_pskip=0 / chroma_qp_offset=-3 / threads=12 / lookahead_threads=2 / sliced_threads=0 / nr=0 / decimate=1 / interlaced=0 / bluray_compat=0 / constrained_intra=0 / bframes=8 / b_pyramid=2 / b_adapt=2 / b_bias=0 / direct=3 / weightb=1 / open_gop=0 / weightp=2 / keyint=250 / keyint_min=23 / scenecut=40 / intra_refresh=0 / rc_lookahead=60 / rc=2pass / mbtree=1 / bitrate=12017 / ratetol=1.0 / qcomp=0.60 / qpmin=0 / qpmax=69 / qpstep=4 / cplxblur=20.0 / qblur=0.5 / vbv_maxrate=40000 / vbv_bufsize=30000 / nal_hrd=none / ip_ratio=1.40 / aq=1:0.80
Language : English
Default : Yes
Forced : No

Audio #1
ID : 2
Format : AC-3
Format/Info : Audio Coding 3
Codec ID : A_AC3
Duration : 2 h 17 min
Bit rate mode : Constant
Bit rate : 192 kb/s
Channel(s) : 2 channels
Channel positions : Front: L R
Sampling rate : 48.0 kHz
Frame rate : 31.250 FPS (1536 SPF)
Bit depth : 16 bits
Compression mode : Lossy
Stream size : 189 MiB (1%)
Title : MVO, HDrezka Studio
Language : Russian
Service kind : Complete Main
Default : Yes
Forced : No

Audio #2
ID : 3
Format : DTS
Format/Info : Digital Theater Systems
Codec ID : A_DTS
Duration : 2 h 17 min
Bit rate mode : Constant
Bit rate : 1 509 kb/s
Channel(s) : 6 channels
Channel positions : Front: L C R, Side: L R, LFE
Sampling rate : 48.0 kHz
Frame rate : 93.750 FPS (512 SPF)
Bit depth : 24 bits
Compression mode : Lossy
Stream size : 1.45 GiB (11%)
Language : Korean
Default : No
Forced : No

Text
ID : 4
Format : UTF-8
Codec ID : S_TEXT/UTF8
Codec ID/Info : UTF-8 Plain Text
Duration : 2 h 12 min
Bit rate : 57 b/s
Count of elements : 1589
Stream size : 56.4 KiB (0%)
Language : English
Default : No
Forced : No

pb.wtf



Скачать Шпион пошёл на Север через торрент https://b.radikal.ru/b01/1905/9a/40f632e236e1.png Скачать фильм Шпион пошёл на Север через торрент бесплантно в хорошем качестве Описание: Фильм, основанный на реальных событиях, произошедших в середине девяностых годов двадцатого века, рассказывает историю агента ... 10 10 3
Торрент: Зарегистрирован [2019-05-02 20:45] · скачан: 31 раз
Статус: √ проверено
Размер: 13.16 GB
Как cкачать? Как скачать Шпион пошёл на Север через торрент | qTorrent


>> Регистрируемся здесь <<






Отзывы и комментарии о схеме читаем и пишем здесь: ---> Отзывы и комментарии о схеме

Новые благодарочки в телеграм довольных пользователей:
скриншот   скриншот   скриншот   скриншот   скриншот
    Дорогой пользователь! Огромная просьба, поблагодарите релизера, оцените раздачу и оставьте свои комментарий, если Вы скачали Шпион пошёл на Север через торрент бесплатно! Внесите свою лепту в развитие PiratBit!
    Комментировать посты могут только пользователи прошедшие не сложную регистрацию
    Показать сообщения:    

    Шпион пошёл на Север через торрент
    Скачать бесплатно Шпион пошёл на Север
    Шпион пошёл на Север скачать торрент
    Шпион пошёл на Север смотреть онлайн
    Cкачать фильм Шпион пошёл на Север бесплатно
    Шпион пошёл на Север скачать торрент в хорошем качестве
    Шпион пошёл на Север смотреть онлайн бесплатно в хорошем качестве


    Вы не можете начинать темы
    Вы не можете отвечать на сообщения
    Вы не можете редактировать свои сообщения
    Вы не можете удалять свои сообщения
    Вы не можете голосовать в опросах
    Вы не можете прикреплять файлы к сообщениям
    Вы можете скачивать файлы