Ссылка на приватное зеркало всего за 1$. Внимание количество ограничено!!!

OK

1+1

iTunes

мы

OK

1

WEB-DLRip

Джокер

Пифагор

Ведьмак / The Witcher сериал

Лицензия

ПШазам

ОК

Оно 2

iTunes

30
pack

Вам бонус

ВАЖНО

!!Акция!!

Alien_RageХит недели

RePack

Resident Evil 21

ИГРА 18+

pack

RePack

jed

RePack

fifa19

RePack

Assassins Creed: Odyssey

RePack

NEED FOR SPEED™ PAYBACK

4 сезон

9 сезон

Бесстыжие 9 сезон

Все сериалы

все сериалы на PB.wtf

RePack

FAR CRY 5
  

7:02 Праведники / 7:02 Only the Righteous (Кит С. Вэйд) [2018, Ужасы, WEB-DL 720p] MVO ["Синема УС"] pb.wtf

7:02 Праведники через торрент pb.wtf

Размер: 3 GB | Добавлен: 8 мес. назад | Торрент скачан:12 раз
Скачать  

03-05-2019 04:24 7:02 Праведники Скачать торрент  

7:02 Праведники / 7:02 Only the RighteousГод выпуска: 2018
Страна: США
Жанр: Ужасы
Продолжительность: 01:15:09
Перевод: Любительский (многоголосый) | "Синема УС"
Субтитры: отсутствуют

Режиссер: Кит С. Вэйд

rating

В ролях: Пол Антони, Карина Боннефил, Лела Элам, Дэймион Джонсон, Мешон Лаброн, Даниэль Линн, Оуэн Миллер, Мишель Олову, Вафик Рауф, Стэйси Энн Роуз

Описание: Действие происходит в ночь выборов Президента США 2008 года Барака Обамы. Шесть друзей собираются в Майами, чтобы отпраздновать историческую ночь, избрание первого чернокожего Президента. Но когда безумие хозяина вечеринки превращается в смертоносное буйство, все гости подвергаются ужасу ночи, и ни один из них не сможет спастись.

Качество: WEB-DL 720p
Формат: MKV

Видео: 5 330 Кбит/с, 1280x546
Аудио#1: Русский, (AC3, 2 ch, 384 Кбит/с)
скриншот  скриншот  скриншот  

Общее
Уникальный идентификатор : 206096736311026919083865580502836755792 (0x9B0CC99F82B71172BBB1F4AB43E2BD50)
Полное имя : D:\7.02.only.the.righteous.2018.P.WEB-DL.72Op.mkv
Формат : Matroska
Версия формата : Version 2
Размер файла : 3,00 Гбайт
Продолжительность : 1 ч. 15 м.
Режим общего битрейта : Переменный
Общий поток : 5715 Кбит/сек
Дата кодирования : UTC 2019-05-02 09:05:43
Программа кодирования : mkvmerge v8.3.0 ('Over the Horizon') 64bit
Библиотека кодирования : libebml v1.3.1 + libmatroska v1.4.2

Видео
Идентификатор : 1
Формат : AVC
Формат/Информация : Advanced Video Codec
Профиль формата : High@L4.1
Параметр CABAC формата : Да
Параметр RefFrames формата : 4 кадра
Идентификатор кодека : V_MPEG4/ISO/AVC
Продолжительность : 1 ч. 15 м.
Вид битрейта : Переменный
Битрейт : 5330 Кбит/сек
Максимальный битрейт : 6000 Кбит/сек
Ширина : 1280 пикселей
Высота : 546 пикселей
Соотношение сторон : 2,35:1
Режим частоты кадров : Постоянный
Частота кадров : 23,976 (24000/1001) кадра/сек
Стандарт вещания : Component
Цветовое пространство : YUV
Субдискретизация насыщенности : 4:2:0
Битовая глубина : 8 бит
Тип развёртки : Прогрессивная
Бит/(Пиксели*Кадры) : 0.311
Размер потока : 2,74 Гбайт (91%)
Default : Да
Forced : Нет
Цветовой диапазон : Limited
Основные цвета : BT.709
Характеристики трансфера : BT.709
Коэффициенты матрицы : BT.709

Аудио
Идентификатор : 2
Формат : AC-3
Формат/Информация : Audio Coding 3
Расширение режима : CM (complete main)
Параметр Endianness формата : Big
Идентификатор кодека : A_AC3
Продолжительность : 1 ч. 15 м.
Вид битрейта : Постоянный
Битрейт : 384 Кбит/сек
Каналы : 2 канала
Расположение каналов : Front: L R
Частота : 48,0 КГц
Частота кадров : 31,250 кадров/сек (1536 spf)
Метод сжатия : С потерями
Размер потока : 206 Мбайт (7%)
Default : Да
Forced : Нет

pb.wtf



Скачать 7:02 Праведники через торрент https://a.radikal.ru/a09/1905/ca/70dc1e0c52ff.jpg Скачать фильм 7:02 Праведники через торрент бесплантно в хорошем качестве Описание: Действие происходит в ночь выборов Президента США 2008 года Барака Обамы. Шесть друзей собираются в Майами, чтобы отпраздновать ... 10 10 2
Торрент: Зарегистрирован [2019-05-03 04:24] · скачан: 12 раз
Статус: T временная
Размер: 3 GB
Как cкачать? Как скачать 7:02 Праведники через торрент | qTorrent

% Раздел Тема Автор DL S | L
T Фильмы (мультфильмы) cо спонсором показа (Новинки AVI/MKV) [ 1.37 GB ] 7:02 Праведники / 7:02 Only the Righteous [2018 WEB-DLRip] MVO ["Синема УС"] bober100 Скачать
1 | 0

28-11-2019 20:33  

Отключить всю рекламу на сайте

    Дорогой пользователь! Огромная просьба, поблагодарите релизера, оцените раздачу и оставьте свои комментарий, если Вы скачали 7:02 Праведники через торрент бесплатно! Внесите свою лепту в развитие PiratBit!
    Комментировать посты могут только пользователи прошедшие не сложную регистрацию
    Показать сообщения:    

    7:02 Праведники через торрент
    Скачать бесплатно 7:02 Праведники
    7:02 Праведники скачать торрент
    7:02 Праведники смотреть онлайн
    Cкачать фильм 7:02 Праведники бесплатно
    7:02 Праведники скачать торрент в хорошем качестве
    7:02 Праведники смотреть онлайн бесплатно в хорошем качестве


    Вы не можете начинать темы
    Вы не можете отвечать на сообщения
    Вы не можете редактировать свои сообщения
    Вы не можете удалять свои сообщения
    Вы не можете голосовать в опросах
    Вы не можете прикреплять файлы к сообщениям
    Вы можете скачивать файлы