Ссылка на приватное зеркало всего за 1$. Внимание количество ограничено!!!

OK

1+1

iTunes

мы

OK

1

WEB-DLRip

Джокер

Пифагор

Ведьмак / The Witcher сериал

iTunes

ПШазам

ОК

Оно 2

iTunes

30
pack

Вам бонус

ВАЖНО

!!Акция!!

Alien_RageХит недели

RePack

Resident Evil 21

ИГРА 18+

pack

RePack

jed

RePack

fifa19

RePack

Assassins Creed: Odyssey

RePack

NEED FOR SPEED™ PAYBACK

4 сезон

9 сезон

Бесстыжие 9 сезон

Все сериалы

все сериалы на PB.wtf

RePack

FAR CRY 5
  

Дорогие мои слоны / My Dear Elephant / Wo de chong wu shi da xiang (Шао Сяоли) [2019, комедия, WEBRip 720p] MVO [КОЛОБОК] pb.wtf

Дорогие мои слоны через торрент pb.wtf

Размер: 3.74 GB | Добавлен: 8 мес. назад | Торрент скачан:1 раз
Скачать  

03-05-2019 04:41 Дорогие мои слоны Скачать торрент  

Дорогие мои слоны / My Dear Elephant / Wo de chong wu shi da xiang Год выпуска: 2019
Страна: Китай
Жанр: комедия
Продолжительность: 01:50:21
Перевод: Любительский (многоголосый) | КОЛОБОК
Субтитры: отсутствуют

Режиссер: Шао Сяоли



В ролях: Лау Чин-Ван, Уна Ю, Кун Вэй, Лам Сют, Чжоу Чжи, Пань Юэмин, Су Дань, Ли Сяочуань

Описание: Передвижной цирк со слонами получает шанс найти себе стабильное место для выступлений - попасть в "Страну мечты", большой комплекс развлечений. Однако на пути владельца цирка, старого Ци, встанут старые долги и происки юной защитницы прав животных Джессики.

Качество: WEBRip 720p
Формат: MKV

Видео: h.264, 4 461 Кбит/с, 1280x532
Аудио#1: Русский, (AC3, 2 ch, 384 Кбит/с)
скриншот  скриншот  скриншот  

Общее
Уникальный идентификатор : 224576787832391902907124430448366405853 (0xA8F3EA8241E54437BEA6D70B802B48DD)
Полное имя : D:\MyDearElephant.2O19.Pk.WEBRip.72Op.mkv
Формат : Matroska
Версия формата : Version 2
Размер файла : 3,74 Гбайт
Продолжительность : 1 ч. 50 м.
Режим общего битрейта : Переменный
Общий поток : 4846 Кбит/сек
Дата кодирования : UTC 2019-05-01 18:19:45
Программа кодирования : mkvmerge v8.3.0 ('Over the Horizon') 64bit
Библиотека кодирования : libebml v1.3.1 + libmatroska v1.4.2

Видео
Идентификатор : 1
Формат : AVC
Формат/Информация : Advanced Video Codec
Профиль формата : High@L4.1
Параметр CABAC формата : Да
Параметр RefFrames формата : 4 кадра
Идентификатор кодека : V_MPEG4/ISO/AVC
Продолжительность : 1 ч. 50 м.
Вид битрейта : Переменный
Битрейт : 4461 Кбит/сек
Максимальный битрейт : 5000 Кбит/сек
Ширина : 1280 пикселей
Высота : 532 пикселя
Соотношение сторон : 2,40:1
Режим частоты кадров : Постоянный
Частота кадров : 23,976 (24000/1001) кадра/сек
Стандарт вещания : Component
Цветовое пространство : YUV
Субдискретизация насыщенности : 4:2:0
Битовая глубина : 8 бит
Тип развёртки : Прогрессивная
Бит/(Пиксели*Кадры) : 0.267
Размер потока : 3,37 Гбайт (90%)
Default : Да
Forced : Нет
Цветовой диапазон : Limited
Основные цвета : BT.709
Характеристики трансфера : BT.709
Коэффициенты матрицы : BT.709

Аудио
Идентификатор : 2
Формат : AC-3
Формат/Информация : Audio Coding 3
Расширение режима : CM (complete main)
Параметр Endianness формата : Big
Идентификатор кодека : A_AC3
Продолжительность : 1 ч. 50 м.
Вид битрейта : Постоянный
Битрейт : 384 Кбит/сек
Каналы : 2 канала
Расположение каналов : Front: L R
Частота : 48,0 КГц
Частота кадров : 31,250 кадров/сек (1536 spf)
Метод сжатия : С потерями
Размер потока : 303 Мбайт (8%)
Default : Да
Forced : Нет

pb.wtf



Скачать Дорогие мои слоны через торрент https://a.radikal.ru/a27/1905/08/0194e79658bd.jpg Скачать фильм Дорогие мои слоны через торрент бесплантно в хорошем качестве Описание: Передвижной цирк со слонами получает шанс найти себе стабильное место для выступлений - попасть в "Страну мечты", большой ... 10 10 2
Торрент: Зарегистрирован [2019-05-03 04:41] · скачан: 1 раз
Статус: T временная
Размер: 3.74 GB
Как cкачать? Как скачать Дорогие мои слоны через торрент | qTorrent

% Раздел Тема Автор DL S | L
T Фильмы (мультфильмы) cо спонсором показа (Новинки AVI/MKV) [ 1.37 GB ] Дорогие мои слоны / My Dear Elephant / Wo de chong wu shi da xiang [2019 WEBRip] MVO [КОЛОБОК] bober100 Скачать
1 | 0

28-11-2019 20:33  

Отключить всю рекламу на сайте

    Дорогой пользователь! Огромная просьба, поблагодарите релизера, оцените раздачу и оставьте свои комментарий, если Вы скачали Дорогие мои слоны через торрент бесплатно! Внесите свою лепту в развитие PiratBit!
    Комментировать посты могут только пользователи прошедшие не сложную регистрацию
    Показать сообщения:    

    Дорогие мои слоны через торрент
    Скачать бесплатно Дорогие мои слоны
    Дорогие мои слоны скачать торрент
    Дорогие мои слоны смотреть онлайн
    Cкачать фильм Дорогие мои слоны бесплатно
    Дорогие мои слоны скачать торрент в хорошем качестве
    Дорогие мои слоны смотреть онлайн бесплатно в хорошем качестве


    Вы не можете начинать темы
    Вы не можете отвечать на сообщения
    Вы не можете редактировать свои сообщения
    Вы не можете удалять свои сообщения
    Вы не можете голосовать в опросах
    Вы не можете прикреплять файлы к сообщениям
    Вы можете скачивать файлы