MEGA SALE -50% FORZA HORIZON 4 ULTIMATE+ВСЕ DLC+ОНЛАЙН всего за 599р. 299 руб. (супер цена). Внимание количество ограничено!!!

iTunes

1+1

iTunes

мы

iTunes

1

iTunes

Чернобыль

1 сезон

Ральф против интернета

Лицензия

ПШазам

Лицензия

Игра престолов

Лицензия

30
pack

ВАЖНО

!!Акция!!

Alien_RageХит недели

RePack

Resident Evil 21

ИГРА 18+

pack

RePack

Metro:Exodus

!!Акция!!

Alien_Rage

RePack

fifa19

RePack

Assassins Creed: Odyssey

RePack

NEED FOR SPEED™ PAYBACK

3 сезон

9 сезон

Бесстыжие 9 сезон

Все сериалы

все сериалы на PB.wtf

RePack

FAR CRY 5
Ребята, катастрофически не хватает 7730р. для оплаты серверов за ИЮЛЬ (всвязи с блокировками трафик упал в 3 раза), 1-2р., выручайте.
  

Целостность / Lian zheng feng yun (Алан Мак) [2019, драма, криминал, триллер, BDRip 720p] MVO [AlphaProject] pb.wtf

Целостность через торрент pb.wtf

Размер: 5.65 GB | Добавлен: 3 мес. 18 д. назад | Торрент скачан:16 раз
Скачать  

03-05-2019 06:43 Целостность Скачать торрент  

Целостность / Lian zheng feng yunГод выпуска: 2019
Страна: Гонконг, Китай
Жанр: драма, криминал, триллер
Продолжительность: 01:55:04
Перевод: Любительский (многоголосый) | AlphaProject
Субтитры: отсутствуют

Режиссер: Алан Мак

rating

В ролях:

Шон Лау, Ник Чунг, Алекс Фун, Карена Лам

Описание:

Друг детства главного следователя Независимой Комиссии Против Коррупции Чана Кинга Хуэй Чик проводит шпионскую работу в компании контрабандистов даже после того, как Хуэй таинственно сбегает в Австралию. Однако главный следователь НКПК Чан Кинг знает всё, что делает Хуэй Чик даже после побега, но из-за фатальной ошибки Чан Кинг, все усилия команды пошли насмарку.

Качество: BDRip 720p
Формат: MKV

Видео: h.264,6 585 Кбит/с, 1280x536
Аудио: Русский (AC3, 2 ch, 448 Кбит/с)
скриншот  скриншот  скриншот  

Общее
Уникальный идентификатор : 196024310797808738171814909292297464364 (0x9378E8B42E3882559A449897949A2A2C)
Полное имя : D:\Integrity.2019.Pa.BDRip.72Op.mkv
Формат : Matroska
Версия формата : Version 2
Размер файла : 5,65 Гбайт
Продолжительность : 1 ч. 55 м.
Режим общего битрейта : Переменный
Общий поток : 7035 Кбит/сек
Дата кодирования : UTC 2019-05-01 16:26:56
Программа кодирования : mkvmerge v8.3.0 ('Over the Horizon') 64bit
Библиотека кодирования : libebml v1.3.1 + libmatroska v1.4.2

Видео
Идентификатор : 1
Формат : AVC
Формат/Информация : Advanced Video Codec
Профиль формата : High@L4.1
Параметр CABAC формата : Да
Параметр RefFrames формата : 4 кадра
Идентификатор кодека : V_MPEG4/ISO/AVC
Продолжительность : 1 ч. 55 м.
Вид битрейта : Переменный
Битрейт : 6585 Кбит/сек
Максимальный битрейт : 7500 Кбит/сек
Ширина : 1280 пикселей
Высота : 536 пикселей
Соотношение сторон : 2,40:1
Режим частоты кадров : Постоянный
Частота кадров : 23,976 (24000/1001) кадра/сек
Стандарт вещания : Component
Цветовое пространство : YUV
Субдискретизация насыщенности : 4:2:0
Битовая глубина : 8 бит
Тип развёртки : Прогрессивная
Бит/(Пиксели*Кадры) : 0.392
Размер потока : 5,18 Гбайт (92%)
Default : Да
Forced : Нет
Цветовой диапазон : Limited
Основные цвета : BT.709
Характеристики трансфера : BT.709
Коэффициенты матрицы : BT.709

Аудио
Идентификатор : 2
Формат : AC-3
Формат/Информация : Audio Coding 3
Расширение режима : CM (complete main)
Параметр Endianness формата : Big
Идентификатор кодека : A_AC3
Продолжительность : 1 ч. 55 м.
Вид битрейта : Постоянный
Битрейт : 448 Кбит/сек
Каналы : 2 канала
Расположение каналов : Front: L R
Частота : 48,0 КГц
Частота кадров : 31,250 кадров/сек (1536 spf)
Метод сжатия : С потерями
Размер потока : 369 Мбайт (6%)
Default : Да
Forced : Нет

pb.wtf



Скачать Целостность через торрент https://d.radikal.ru/d31/1905/01/c3aacab8e7a2.jpg Скачать фильм Целостность через торрент бесплантно в хорошем качестве Описание: Друг детства главного следователя Независимой Комиссии Против Коррупции Чана Кинга Хуэй Чик проводит шпионскую работу в компании ... 10 10 2
Торрент: Зарегистрирован [2019-05-03 06:43] · скачан: 16 раз
Статус: # сомнительно
Размер: 5.65 GB
Как cкачать? Как скачать Целостность через торрент | qTorrent

% Раздел Тема Автор DL S | L
T Фильмы (мультфильмы) cо спонсором показа (Новинки AVI/MKV) [ 1.46 GB ] Целостность / Lian zheng feng yun [2019 HDRip] MVO [AlphaProject] bober100 Скачать
2 | 0


>> Регистрируемся здесь <<






Отзывы и комментарии о схеме читаем и пишем здесь: ---> Отзывы и комментарии о схеме

Новые благодарочки в телеграм довольных пользователей:
скриншот   скриншот   скриншот   скриншот   скриншот

03-05-2019 18:30 Целостность Скачать торрент  

Зачитался "описанием". Перечитал трижды. Буду советовать к прочтению друзьям.pb.wtf



05-05-2019 06:44 Целостность Скачать торрент  

pb.wtf



13-05-2019 19:47 Целостность Скачать торрент  

Не смог осилить даже аннотацию Я слишком тупой, чтобы смотреть такие сложные фильмы.pb.wtf



    Дорогой пользователь! Огромная просьба, поблагодарите релизера, оцените раздачу и оставьте свои комментарий, если Вы скачали Целостность через торрент бесплатно! Внесите свою лепту в развитие PiratBit!
    Комментировать посты могут только пользователи прошедшие не сложную регистрацию
    Показать сообщения:    

    Целостность через торрент
    Скачать бесплатно Целостность
    Целостность скачать торрент
    Целостность смотреть онлайн
    Cкачать фильм Целостность бесплатно
    Целостность скачать торрент в хорошем качестве
    Целостность смотреть онлайн бесплатно в хорошем качестве


    Вы не можете начинать темы
    Вы не можете отвечать на сообщения
    Вы не можете редактировать свои сообщения
    Вы не можете удалять свои сообщения
    Вы не можете голосовать в опросах
    Вы не можете прикреплять файлы к сообщениям
    Вы можете скачивать файлы