Всегда рабочее зеркало без VPN и Proxy просто перед .vidak.icu напиши любое слово или цифру, Пример http://zcdj.vidak.icu

Лицензия

MVO

1 сезон

1

1 сезон

iTunes

1 сезон

13

1 сезон

Deluxe

pack

Рекомендуем

Repack

30

ВАЖНО

RePack

MK11

RePack

jed

RePack

fifa19

RePack

RDR2

RePack

NEED FOR SPEED™ PAYBACK

Кинопоиск HD

6 сезон

 Острые козырьки 6 сезон

Все сериалы

все сериалы на PB.wtf

RePack

FAR CRY 5
  
Magnet ссылка

Мэри Поппинс возвращается / Mary Poppins Returns (Роб Маршалл) [2018, мюзикл, фэнтези, комедия, UHD BDRemux 2160p] DUB [Лицензия] + MVO [HDRezka studio] pb.wtf

Мэри Поппинс возвращается через торрент pb.wtf

Размер: 53.8 GB | Добавлен: 3 года 3 мес. назад | Торрент скачан:9 раз
Смотреть онлайн Мэри Поппинс возвращается | Скачать    Ребята, помогите собрать деньги на оплату серверов!!!

03-05-2019 11:00 Мэри Поппинс возвращается Скачать торрент  

Мэри Поппинс возвращается / Mary Poppins Returns«In a place we hold dear, where wonder once lived... but soon from above, a new story begins»

Год выпуска: 2018
Страна: США
Жанр: мюзикл, фэнтези, комедия, семейный
Продолжительность: 02:10:29
Перевод: Дублированный, профессиональный многоголосый
Субтитры: Русские (Forced, full), английские
Режиссер: Роб Маршалл
В ролях:

Эмили Блант (Mary Poppins), Лин-Мануэль Миранда (Jack), Бен Уишоу (Michael Banks), Эмили Мортимер (Jane Banks), Пикси Дейвис (Annabel), Натаниэль Сале (John), Джоэль Доусон (Georgie), Джули Уолтерс (Ellen), Мэрил Стрип (Cousin Topsy), Колин Фёрт (Wilkins / Wolf), Джереми Свифт (Gooding / Badger), Кобна Холдбрук-Смит (Frye / Weasel)
Описание:
Музыкальное продолжение классической картины 1964 года рассказывает о приключениях Мэри и ее друга Джека, которым предстоит встретиться с представителями следующего поколения семейства Бэнкс. Яркая музыкальная история подарит новому поколению детей и взрослых незабываемую встречу с неповторимой няней, уверенной в том, что даже в самые сложные времена есть место искреннему восторгу и удивлению!
Рейтинг:

MPAA: PG - Рекомендуется присутствие родителей
Качество: UHD BDRemux 2160p
Формат: MKV
Видео: 3840x2160 at 23.976 fps, MPEG-H HEVC HDR Video, 53200 kbps avg
Аудио #01: 48 kHz, AC3, 5.1, 640 Kbps | Лицензия | RUS |
Аудио #02: 48 kHz, AC3, 2.0, 192 Kbps | HDRezka Studio | RUS |
Аудио #03: 48 kHz, TrueHD, 7.1, 4253 Kbps | Оригинал | ENG |
Аудио #04: 48 kHz, AC3, 5.1, 640 Kbps | Оригинал | ENG |
Навигация по главам: есть
General
Unique ID : 262418282316042378269248451628494074920 (0xC56BEC3BC00148CDA192AD4B7A95B428)
Complete name : F:Video1Mary.Poppins.Returns.2018.Lic.BDREMUX.2160p.HDR.seleZen.mkv
Format : Matroska
Format version : Version 4
File size : 53.8 GiB
Duration : 2 h 10 min
Overall bit rate mode : Variable
Overall bit rate : 59.0 Mb/s
Movie name : Mary Poppins Returns 2018 4K from селезень
Encoded date : UTC 2019-05-03 10:06:00
Writing application : mkvmerge v32.0.0 ('Astral Progressions') 64-bit
Writing library : libebml v1.3.7 + libmatroska v1.5.0

Video
ID : 1
Format : HEVC
Format/Info : High Efficiency Video Coding
Format profile : Main [email protected]@High
HDR format : SMPTE ST 2086, HDR10 compatible
Codec ID : V_MPEGH/ISO/HEVC
Duration : 2 h 10 min
Bit rate : 53.2 Mb/s
Width : 3 840 pixels
Height : 2 160 pixels
Display aspect ratio : 16:9
Frame rate mode : Constant
Frame rate : 23.976 (24000/1001) FPS
Color space : YUV
Chroma subsampling : 4:2:0 (Type 2)
Bit depth : 10 bits
Bits/(Pixel*Frame) : 0.268
Stream size : 48.5 GiB (90%)
Writing library : ATEME Titan File 3.9.0 (4.9.0.0)
Language : English
Default : Yes
Forced : No
Color range : Limited
Color primaries : BT.2020
Transfer characteristics : PQ
Matrix coefficients : BT.2020 non-constant
Mastering display color pri : Display P3
Mastering display luminance : min: 0.0001 cd/m2, max: 1000 cd/m2

Audio #1
ID : 2
Format : AC-3
Format/Info : Audio Coding 3
Commercial name : Dolby Digital
Codec ID : A_AC3
Duration : 2 h 10 min
Bit rate mode : Constant
Bit rate : 640 kb/s
Channel(s) : 6 channels
Channel layout : L R C LFE Ls Rs
Sampling rate : 48.0 kHz
Frame rate : 31.250 FPS (1536 SPF)
Bit depth : 16 bits
Compression mode : Lossy
Stream size : 597 MiB (1%)
Title : Dub [License]
Language : Russian
Service kind : Complete Main
Default : Yes
Forced : Yes

Audio #2
ID : 3
Format : AC-3
Format/Info : Audio Coding 3
Commercial name : Dolby Digital
Codec ID : A_AC3
Duration : 2 h 10 min
Bit rate mode : Constant
Bit rate : 192 kb/s
Channel(s) : 2 channels
Channel layout : L R
Sampling rate : 48.0 kHz
Frame rate : 31.250 FPS (1536 SPF)
Bit depth : 16 bits
Compression mode : Lossy
Stream size : 179 MiB (0%)
Title : MVO [HDRezka Studio]
Language : Russian
Service kind : Complete Main
Default : No
Forced : No

Audio #3
ID : 4
Format : MLP FBA 16-ch
Format/Info : Meridian Lossless Packing FBA with 16-channel presentation
Commercial name : Dolby TrueHD with Dolby Atmos
Codec ID : A_TRUEHD
Duration : 2 h 10 min
Bit rate mode : Variable
Bit rate : 4 253 kb/s
Maximum bit rate : 6 366 kb/s
Channel(s) : 8 channels
Channel layout : L R C LFE Ls Rs Lb Rb
Sampling rate : 48.0 kHz
Frame rate : 1 200.000 FPS (40 SPF)
Compression mode : Lossless
Stream size : 3.88 GiB (7%)
Title : Original
Language : English
Default : No
Forced : No
Number of dynamic objects : 13
Bed channel count : 1 channel
Bed channel configuration : LFE

Audio #4
ID : 5
Format : AC-3
Format/Info : Audio Coding 3
Commercial name : Dolby Digital
Codec ID : A_AC3
Duration : 2 h 10 min
Bit rate mode : Constant
Bit rate : 640 kb/s
Channel(s) : 6 channels
Channel layout : L R C LFE Ls Rs
Sampling rate : 48.0 kHz
Frame rate : 31.250 FPS (1536 SPF)
Bit depth : 16 bits
Compression mode : Lossy
Stream size : 597 MiB (1%)
Language : English
Service kind : Complete Main
Default : No
Forced : No

Text #1
ID : 6
Format : UTF-8
Codec ID : S_TEXT/UTF8
Codec ID/Info : UTF-8 Plain Text
Duration : 1 h 48 min
Bit rate : 0 b/s
Count of elements : 4
Stream size : 211 Bytes (0%)
Title : Forced [iTunes]
Language : Russian
Default : Yes
Forced : Yes

Text #2
ID : 7
Format : UTF-8
Codec ID : S_TEXT/UTF8
Codec ID/Info : UTF-8 Plain Text
Duration : 2 h 2 min
Bit rate : 107 b/s
Count of elements : 1972
Stream size : 96.3 KiB (0%)
Title : Full [iTunes]
Language : Russian
Default : No
Forced : No

Text #3
ID : 8
Format : UTF-8
Codec ID : S_TEXT/UTF8
Codec ID/Info : UTF-8 Plain Text
Duration : 2 h 5 min
Bit rate : 84 b/s
Count of elements : 2457
Stream size : 77.6 KiB (0%)
Language : English
Default : No
Forced : No

Menu
00:00:00.000 : en:Opening
00:06:38.064 : en:The Wolves at the Door
00:15:22.046 : en:A Conversation
00:19:18.031 : en:Mary Poppins Arrives
00:26:01.893 : en:"Can You Imagine That?"
00:33:10.405 : en:Searching for the Shares
00:39:05.426 : en:The Royal Doulton Bowl
00:46:11.351 : en:"A Cover is Not the Book"
00:57:34.033 : en:"The Place Where Lost Things Go"
01:06:14.387 : en:"Turning Turtle"
01:15:55.801 : en:Not the Quickest Way to the Bank
01:21:51.364 : en:"Trip a Little Light Fantastic"
01:32:18.199 : en:Nothing's Gone Forever
01:36:29.825 : en:Everything Is Possible
01:53:58.331 : en:"Nowhere to Go but Up"
02:03:47.962 : en:End Credits
pb.wtf



Скачать Мэри Поппинс возвращается через торрент https://b.radikal.ru/b31/1904/f6/a4be37e3253f.png Скачать, смотреть онлайн Мэри Поппинс возвращается бесплантно в хорошем качестве Описание: Музыкальное продолжение классической картины 1964 года рассказывает о приключениях Мэри и ее друга Джека, которым предстоит ... 10 10 1
Торрент: Зарегистрирован [2019-05-03 11:00] · скачан: 9 раз
Статус: √ проверено
Размер: 53.8 GB
Как cкачать? Как скачать Мэри Поппинс возвращается через торрент | UTorrent

% Раздел Тема Автор DL S | L
Ultra HD (UHD: 2K, 4K, 8K) — видео сверхвысокой чёткости [ 62.1 GB ] Мэри Поппинс возвращается / Mary Poppins Returns [2018 мюзикл UHD Blu-ray 2160p] [Custom] DUB sheker187 Скачать
1 | 0
Ultra HD (UHD: 2K, 4K, 8K) — видео сверхвысокой чёткости [ 17.75 GB ] Мэри Поппинс возвращается / Mary Poppins Returns [2018 мюзикл UHD BDRip 2160p] DUB + MVO [HDRezka studio] sheker187 Скачать
1 | 0
Фильмы 2018 [DVDrip, WEB-DLRip, HDrip] (DUB, MVO) [ 1.45 GB ] Мэри Поппинс возвращается / Mary Poppins Returns [2018 мюзикл BDRip-AVC] DUB [] - ExKinoRay Enigma2010 Скачать
4 | 0
Ultra HD (UHD: 2K, 4K, 8K) — видео сверхвысокой чёткости [ 39.9 GB ] Мэри Поппинс возвращается / Mary Poppins Returns [2018 мюзикл UHD BDRip 2160p] [SDR] DUB + MVO [HDRezka studio] sheker187 Скачать
1 | 0
Фильмы [HD 720p, 1080p] (Хороший звук DUB, MVO) [ 13.58 GB ] Мэри Поппинс возвращается / Mary Poppins Returns [2018 мюзикл BDRip 1080p] DUB [] + MVO [HDRezka studio] sheker187 Скачать
1 | 0
Фильмы (Blu-ray, BD-Remux, HDDVD) [ 29.43 GB ] Мэри Поппинс возвращается / Mary Poppins Returns [2018 мюзикл BDRemux 1080p] DUB [] + MVO [HDRezka studio] sheker187 Скачать
1 | 0
Фильмы 2018 [DVDrip, WEB-DLRip, HDrip] (DUB, MVO) [ 2.56 GB ] Мэри Поппинс возвращается / Mary Poppins Returns [2018 мюзикл BDRip-AVC] MVO [HDRezka Studio] + bober100 Скачать
1 | 0

28-11-2019 20:33  

Отключить вcю реклaмy на сайте

    Дорогой пользователь! Огромная просьба, поблагодарите релизера, оцените раздачу и оставьте свои комментарий, если Вы скачали Мэри Поппинс возвращается через торрент бесплатно!
    Комментировать посты могут только пользователи прошедшие не сложную регистрацию
    Показать сообщения:    

    Мэри Поппинс возвращается через торрент
    Скачать бесплатно Мэри Поппинс возвращается
    Мэри Поппинс возвращается скачать торрент
    Мэри Поппинс возвращается смотреть онлайн
    Cкачать фильм Мэри Поппинс возвращается бесплатно
    Мэри Поппинс возвращается скачать торрент в хорошем качестве
    Мэри Поппинс возвращается смотреть онлайн бесплатно в хорошем качестве


    Вы не можете начинать темы
    Вы не можете отвечать на сообщения
    Вы не можете редактировать свои сообщения
    Вы не можете удалять свои сообщения
    Вы не можете голосовать в опросах
    Вы не можете прикреплять файлы к сообщениям
    Вы можете скачивать файлы