Всегда рабочее зеркало без VPN и Proxy просто перед .vidak.icu напиши любое слово или цифру, Пример http://z690.vidak.icu

MVO

2 сезон

1 сезон

1

1 сезон

iTunes

2 сезон

13

1 сезон

Deluxe

pack

Рекомендуем

Пиратка

30

ВАЖНО

RePack

MK11

RePack

jed

RePack

fifa19

RePack

RDR2

RePack

NEED FOR SPEED™ PAYBACK

Кинопоиск HD

6 сезон

 Острые козырьки 6 сезон

Все сериалы

все сериалы на PB.wtf

RePack

FAR CRY 5

Anonymous, нам критически не хватает 5601 руб. на оплату серверов и переферии за Апрель, помоги нам пожалуйста, вся надежда только на тебя. В благодарность мы отключим тебе всю рекламу на сайте!

×
  
Magnet ссылка

Повелитель иллюзий / Lord of Illusions (Клайв Баркер) [1995, ужасы, триллер, детектив, BDRip 1080p by msltel] DUB, MVO, DVO, 3 x AVO | Режиссёрская версия pb.wtf

Повелитель иллюзий через торрент pb.wtf

Размер: 16.85 GB | Добавлен: 3 года назад | Торрент скачан:21 раз
Смотреть онлайн Повелитель иллюзий | Скачать    Ребята, помогите собрать деньги на оплату серверов!!!

03-05-2019 12:41 Повелитель иллюзий Скачать торрент  

Название: Повелитель иллюзий
Оригинальное название: Lord of Illusions
Год выпуска: 1995
Страна: США
Жанр: ужасы, триллер, детектив
Продолжительность: 02:01:34
Перевод: дублированный, закадровый многоголосый, закадровый двухголосый, авторский

Режиссер: Клайв Баркер
В ролях: Скотт Бакула, Кевин Дж. О`Коннор, Фамке Янссен, Винсент Скьявелли, Шила Таузи, Дэниэл фон Барген, Уэйн Грейс, Джозеф Лэтимор, Барбара Патрик, Джордан Мардер

О фильме: Детектив Гарри Д’амур, наблюдая выступление знаменитого иллюзиониста Филиппа Свана вместе с остальными зрителями, становится свидетелем необычной смерти иллюзиониста — в ходе выступления что-то выходит из-под контроля, и на тело Свана падают мечи и пронзают его. Помощник Свана от имени жены погибшего Доротеи нанимает Гарри для расследования. Но чем дальше Гарри продвигается в раскрытии преступления, тем больше смертей встречается на его пути... (Википедия)



Качество: BDRip 1080p
Формат: MKV
Видео: MPEG-4 AVC, 13.2 Mбит/с, 1920x1040
Аудио 1: русский, AC3, 192 kbps, 2 ch, 48 kHz [дублированный]
Аудио 2: русский, AC3, 192 kbps, 2 ch, 48 kHz [закадровый многоголосый, Медиа-Фильм]
Аудио 3: русский, AC3, 192 kbps, 2 ch, 48 kHz [закадровый двухголосый, ]
Аудио 4: русский, DTS, 1509 kbps, 6 ch, 48 kHz [авторский, Андрей Гаврилов]
Аудио 5: русский, DTS, 1509 kbps, 6 ch, 48 kHz [авторский, Дмитрий Есарев]
Аудио 6: русский, DTS, 1509 kbps, 6 ch, 48 kHz [авторский, Юрий Живов]
Аудио 7: английский, DTS, 1509 kbps, 6 ch, 48 kHz [оригинал]
Субтитры 1: русские
Субтитры 2: английские
Главы/чаптеры
Общее
Уникальный идентификатор : 172715888357089068729451982280948118836 (0x81EFDEC0911946CCBDD9AD6CB3F2F534)
Полное имя : D:\Video\Повелитель иллюзий.1995.DirCut.BDRip 1080p by msltel.mkv
Формат : Matroska
Версия формата : Version 4
Размер файла : 16,8 Гбайт
Продолжительность : 2 ч. 1 м.
Общий поток : 19,8 Мбит/сек
Название фильма : Rip by msltel
Дата кодирования : UTC 2019-05-03 08:24:01
Программа кодирования : mkvmerge v8.2.0 ('World of Adventure') 64bit
Библиотека кодирования : libebml v1.3.1 + libmatroska v1.4.2

Видео
Идентификатор : 1
Формат : AVC
Формат/Информация : Advanced Video Codec
Профиль формата : High@L4.1
Настройки формата : CABAC / 4 Ref Frames
Параметр CABAC формата : Да
Параметр RefFrames формата : 4 кадра
Идентификатор кодека : V_MPEG4/ISO/AVC
Продолжительность : 2 ч. 1 м.
Битрейт : 13,2 Мбит/сек
Ширина : 1920 пикселей
Высота : 1040 пикселей
Соотношение сторон : 1,85:1
Режим частоты кадров : Постоянный
Частота кадров : 23,976 (24000/1001) кадра/сек
Цветовое пространство : YUV
Субдискретизация насыщенности : 4:2:0
Битовая глубина : 8 бит
Тип развёртки : Прогрессивная
Бит/(Пиксели*Кадры) : 0.276
Размер потока : 11,2 Гбайт (67%)
Библиотека кодирования : x264 core 157 r2935 545de2f
Настройки программы : cabac=1 / ref=4 / deblock=1:-2:-2 / analyse=0x3:0x113 / me=umh / subme=11 / psy=1 / psy_rd=1.00:0.15 / mixed_ref=1 / me_range=32 / chroma_me=1 / trellis=2 / 8x8dct=1 / cqm=0 / deadzone=21,11 / fast_pskip=0 / chroma_qp_offset=-3 / threads=6 / lookahead_threads=1 / sliced_threads=0 / nr=0 / decimate=1 / interlaced=0 / bluray_compat=0 / constrained_intra=0 / bframes=8 / b_pyramid=2 / b_adapt=2 / b_bias=0 / direct=1 / weightb=1 / open_gop=0 / weightp=2 / keyint=230 / keyint_min=23 / scenecut=40 / intra_refresh=0 / rc_lookahead=40 / rc=crf / mbtree=1 / crf=17.0 / qcomp=0.60 / qpmin=0 / qpmax=69 / qpstep=4 / vbv_maxrate=50000 / vbv_bufsize=62500 / crf_max=0.0 / nal_hrd=none / filler=0 / ip_ratio=1.40 / aq=1:1.00
Язык : English
Default : Да
Forced : Нет

Аудио #1
Идентификатор : 2
Формат : AC-3
Формат/Информация : Audio Coding 3
Коммерческое название : Dolby Digital
Идентификатор кодека : A_AC3
Продолжительность : 2 ч. 1 м.
Вид битрейта : Постоянный
Битрейт : 192 Кбит/сек
Каналы : 2 канала
ChannelLayout : L R
Частота : 48,0 КГц
Частота кадров : 31,250 кадров/сек (1536 SPF)
Битовая глубина : 16 бит
Метод сжатия : С потерями
Размер потока : 167 Мбайт (1%)
Заголовок : DUB
Язык : Russian
ServiceKind/String : Complete Main
Default : Да
Forced : Нет

Аудио #2
Идентификатор : 3
Формат : AC-3
Формат/Информация : Audio Coding 3
Коммерческое название : Dolby Digital
Идентификатор кодека : A_AC3
Продолжительность : 2 ч. 1 м.
Вид битрейта : Постоянный
Битрейт : 192 Кбит/сек
Каналы : 2 канала
ChannelLayout : L R
Частота : 48,0 КГц
Частота кадров : 31,250 кадров/сек (1536 SPF)
Битовая глубина : 16 бит
Метод сжатия : С потерями
Размер потока : 167 Мбайт (1%)
Заголовок : MVO Медиа-Фильм
Язык : Russian
ServiceKind/String : Complete Main
Default : Нет
Forced : Нет

Аудио #3
Идентификатор : 4
Формат : AC-3
Формат/Информация : Audio Coding 3
Коммерческое название : Dolby Digital
Идентификатор кодека : A_AC3
Продолжительность : 2 ч. 1 м.
Вид битрейта : Постоянный
Битрейт : 192 Кбит/сек
Каналы : 2 канала
ChannelLayout : L R
Частота : 48,0 КГц
Частота кадров : 31,250 кадров/сек (1536 SPF)
Битовая глубина : 16 бит
Метод сжатия : С потерями
Размер потока : 167 Мбайт (1%)
Заголовок : DVO
Язык : Russian
ServiceKind/String : Complete Main
Default : Нет
Forced : Нет

Аудио #4
Идентификатор : 5
Формат : DTS
Формат/Информация : Digital Theater Systems
Идентификатор кодека : A_DTS
Продолжительность : 2 ч. 1 м.
Вид битрейта : Постоянный
Битрейт : 1509 Кбит/сек
Каналы : 6 каналов
ChannelLayout : C L R Ls Rs LFE
Частота : 48,0 КГц
Частота кадров : 93,750 кадра/сек (512 SPF)
Битовая глубина : 24 бит
Метод сжатия : С потерями
Размер потока : 1,28 Гбайт (8%)
Заголовок : Андрей Гаврилов
Язык : Russian
Default : Нет
Forced : Нет

Аудио #5
Идентификатор : 6
Формат : DTS
Формат/Информация : Digital Theater Systems
Идентификатор кодека : A_DTS
Продолжительность : 2 ч. 1 м.
Вид битрейта : Постоянный
Битрейт : 1509 Кбит/сек
Каналы : 6 каналов
ChannelLayout : C L R Ls Rs LFE
Частота : 48,0 КГц
Частота кадров : 93,750 кадра/сек (512 SPF)
Битовая глубина : 16 бит
Метод сжатия : С потерями
Размер потока : 1,28 Гбайт (8%)
Заголовок : Дмитрий Есарев
Язык : Russian
Default : Нет
Forced : Нет

Аудио #6
Идентификатор : 7
Формат : DTS
Формат/Информация : Digital Theater Systems
Идентификатор кодека : A_DTS
Продолжительность : 2 ч. 1 м.
Вид битрейта : Постоянный
Битрейт : 1509 Кбит/сек
Каналы : 6 каналов
ChannelLayout : C L R Ls Rs LFE
Частота : 48,0 КГц
Частота кадров : 93,750 кадра/сек (512 SPF)
Битовая глубина : 24 бит
Метод сжатия : С потерями
Размер потока : 1,28 Гбайт (8%)
Заголовок : Юрий Живов
Язык : Russian
Default : Нет
Forced : Нет

Аудио #7
Идентификатор : 8
Формат : DTS
Формат/Информация : Digital Theater Systems
Идентификатор кодека : A_DTS
Продолжительность : 2 ч. 1 м.
Вид битрейта : Постоянный
Битрейт : 1509 Кбит/сек
Каналы : 6 каналов
ChannelLayout : C L R Ls Rs LFE
Частота : 48,0 КГц
Частота кадров : 93,750 кадра/сек (512 SPF)
Битовая глубина : 24 бит
Метод сжатия : С потерями
Размер потока : 1,28 Гбайт (8%)
Заголовок : original
Язык : Russian
Default : Нет
Forced : Нет

Текст
Идентификатор : 9
Формат : UTF-8
Идентификатор кодека : S_TEXT/UTF8
Идентификатор кодека/Информация : UTF-8 Plain Text
Продолжительность : 1 ч. 56 м.
Битрейт : 32 бит/сек
ElementCount : 1251
Размер потока : 28,1 Кбайт (0%)
Заголовок : английские
Язык : English
Default : Нет
Forced : Нет

Меню
00:00:00.000 : en:00:00:00.000
00:13:56.252 : en:00:13:56.252
00:28:25.287 : en:00:28:25.287
00:44:10.731 : en:00:44:10.731
00:59:55.383 : en:00:59:55.383
01:17:09.250 : en:01:17:09.250
01:33:42.242 : en:01:33:42.242
01:57:03.975 : en:01:57:03.975
pb.wtf



Скачать Повелитель иллюзий через торрент https://b.radikal.ru/b24/1905/79/bc7a90e74d79.png Скачать, смотреть онлайн Повелитель иллюзий бесплантно в хорошем качестве О фильме: Детектив Гарри Д’амур, наблюдая выступление знаменитого иллюзиониста Филиппа Свана вместе с остальными зрителями, становится ... 10 10 3
Торрент: Зарегистрирован [2019-05-03 12:41] · скачан: 21 раз
Статус: √ проверено
Размер: 16.85 GB
Как cкачать? Как скачать Повелитель иллюзий через торрент | UTorrent

% Раздел Тема Автор DL S | L
Фильмы [HD 720p, 1080p] (Хороший звук DUB, MVO) [ 6.86 GB ] Повелитель иллюзий / Lord of Illusions [1995 BDRip 720p by msltel] DUB MVO DVO 3 x AVO | Режиссёрская версия msltel Скачать
1 | 0

28-11-2019 20:33  

Отключить всю рекламу на сайте

03-05-2019 12:42 Повелитель иллюзий Скачать торрент  

На замену https://piratbit2.top/topic/166364/pb.wtf



    Дорогой пользователь! Огромная просьба, поблагодарите релизера, оцените раздачу и оставьте свои комментарий, если Вы скачали Повелитель иллюзий через торрент бесплатно!
    Комментировать посты могут только пользователи прошедшие не сложную регистрацию
    Показать сообщения:    

    Повелитель иллюзий через торрент
    Скачать бесплатно Повелитель иллюзий
    Повелитель иллюзий скачать торрент
    Повелитель иллюзий смотреть онлайн
    Cкачать фильм Повелитель иллюзий бесплатно
    Повелитель иллюзий скачать торрент в хорошем качестве
    Повелитель иллюзий смотреть онлайн бесплатно в хорошем качестве


    Вы не можете начинать темы
    Вы не можете отвечать на сообщения
    Вы не можете редактировать свои сообщения
    Вы не можете удалять свои сообщения
    Вы не можете голосовать в опросах
    Вы не можете прикреплять файлы к сообщениям
    Вы можете скачивать файлы