Ссылка на приватное зеркало всего за 1$. Внимание количество ограничено!!!

iTunes

1+1

iTunes

мы

WEB-DL

1

iTunes

Чернобыль

iTunes

Ральф против интернета

Лицензия

ПШазам

Лицензия

Оно 2

Лицензия

30
pack

Вам бонус

ВАЖНО

!!Акция!!

Alien_RageХит недели

RePack

Resident Evil 21

ИГРА 18+

pack

RePack

jed

!!Акция!!

Alien_Rage

RePack

fifa19

RePack

Assassins Creed: Odyssey

RePack

NEED FOR SPEED™ PAYBACK

3 сезон

9 сезон

Бесстыжие 9 сезон

Все сериалы

все сериалы на PB.wtf

RePack

FAR CRY 5
Ребята, катастрофически не хватает 1900р. для оплаты серверов за Октябрь (всвязи с блокировками трафик упал в 3 раза), 1-2р., выручайте.
  

Мэри Поппинс возвращается / Mary Poppins Returns (Роб Маршалл) [2018, мюзикл, фэнтези, комедия, BDRip-AVC] DUB [Лицензия] - ExKinoRay pb.wtf

Мэри Поппинс возвращается через торрент pb.wtf

Раздают: 25 [ 204 KB/s ] Качают: 1 [ 0 KB/s ]
Размер: 1.45 GB | Добавлен: 7 мес. назад | Торрент скачан:223 раза
Скачать  

03-05-2019 16:10 Мэри Поппинс возвращается Скачать торрент  

Название: Мэри Поппинс возвращается
Оригинальное название: Mary Poppins Returns
Год выпуска: 2018
Жанр: Мюзикл, фэнтези, комедия, семейный
Режиссер: Роб Маршалл
В ролях: Эмили Блант, Лин-Мануэль Миранда, Бен Уишоу, Эмили Мортимер, Пикси Дейвис, Натаниэль Сале, Джоэль Доусон, Джули Уолтерс, Мэрил Стрип, Колин Фёрт

Описание: Музыкальное продолжение классической картины 1964 года рассказывает о приключениях Мэри и ее друга Джека, которым предстоит встретиться с представителями следующего поколения семейства Бэнкс. Яркая музыкальная история подарит новому поколению детей и взрослых незабываемую встречу с неповторимой няней, уверенной в том, что даже в самые сложные времена есть место искреннему восторгу и удивлению!

rating

Страна: США
Студия: Lucamar Productions, Marc Platt Productions, Walt Disney Pictures
Продолжительность: 02:10:29
Перевод: Дублированный | Лицензия BD EUR
Субтитры: Русские (форсированные на надписи, 2 х полные (iTunes, Наталья Раевская aka Enigma)), английские

БЕЗ КАКОЙ-ЛИБО РЕКЛАМЫ!

Формат: MKV
Качество: BDRip-AVC
Видео: MPEG-4 AVC, 720x302 (2.40:1), 23.976 fps, 1396 Kbps, 0.268 bit/pixel
Аудио : 48 kHz, AC3, 2.0, 192 Kbps | RUS |
General
Unique ID : 212540735195247129596873771004506074729 (0x9FE5DB4C330B5E6682766AA1150EEE69)
Complete name : D:\Mary.Poppins.Returns.2018.Dub.BDRip.AVC.ExKinoRay.mkv
Format : Matroska
Format version : Version 2
File size : 1.45 GiB
Duration : 2 h 10 min
Overall bit rate : 1 590 kb/s
Movie name : Mary Poppins Returns 2018 from ExKinoRay
Encoded date : UTC 2019-05-03 14:45:40
Writing application : mkvmerge v5.6.0 ('Kenya Kane') built on May 27 2012 16:44:04
Writing library : libebml v1.2.3 + libmatroska v1.3.0

Video
ID : 1
Format : AVC
Format/Info : Advanced Video Codec
Format profile : High@L4.1
Format settings, CABAC : Yes
Format settings, ReFrames : 11 frames
Codec ID : V_MPEG4/ISO/AVC
Duration : 2 h 10 min
Bit rate : 1 396 kb/s
Width : 720 pixels
Height : 302 pixels
Display aspect ratio : 2.40:1
Frame rate mode : Constant
Frame rate : 23.976 (24000/1001) FPS
Original frame rate : 23.976 (23976/1000) FPS
Color space : YUV
Chroma subsampling : 4:2:0
Bit depth : 8 bits
Scan type : Progressive
Bits/(Pixel*Frame) : 0.268
Stream size : 1.25 GiB (86%)
Title : Enigma
Writing library : x264 core 152 r2851 ba24899
Encoding settings : cabac=1 / ref=11 / deblock=1:-2:-2 / analyse=0x3:0x113 / me=umh / subme=10 / psy=1 / psy_rd=1.02:0.05 / mixed_ref=1 / me_range=32 / chroma_me=1 / trellis=2 / 8x8dct=1 / cqm=0 / deadzone=21,11 / fast_pskip=0 / chroma_qp_offset=-3 / threads=9 / lookahead_threads=2 / sliced_threads=0 / nr=0 / decimate=0 / interlaced=0 / bluray_compat=0 / constrained_intra=0 / bframes=10 / b_pyramid=2 / b_adapt=2 / b_bias=0 / direct=3 / weightb=1 / open_gop=0 / weightp=2 / keyint=240 / keyint_min=23 / scenecut=40 / intra_refresh=0 / rc_lookahead=40 / rc=2pass / mbtree=1 / bitrate=1396 / ratetol=1.0 / qcomp=0.60 / qpmin=0 / qpmax=51 / qpstep=4 / cplxblur=20.0 / qblur=0.5 / ip_ratio=1.30 / aq=2:0.90
Default : Yes
Forced : No
Color range : Limited
Color primaries : BT.709
Transfer characteristics : BT.709
Matrix coefficients : BT.709

Audio
ID : 2
Format : AC-3
Format/Info : Audio Coding 3
Mode extension : CM (complete main)
Format settings, Endianness : Big
Codec ID : A_AC3
Duration : 2 h 10 min
Bit rate mode : Constant
Bit rate : 192 kb/s
Channel(s) : 2 channels
Channel positions : Front: L R
Sampling rate : 48.0 kHz
Frame rate : 31.250 FPS (1536 spf)
Compression mode : Lossy
Stream size : 179 MiB (12%)
Title : Dub (Blu-Ray)
Language : Russian
Default : Yes
Forced : No

Text #1
ID : 3
Format : UTF-8
Codec ID : S_TEXT/UTF8
Codec ID/Info : UTF-8 Plain Text
Title : Forced
Language : Russian
Default : Yes
Forced : No

Text #2
ID : 4
Format : UTF-8
Codec ID : S_TEXT/UTF8
Codec ID/Info : UTF-8 Plain Text
Title : Full (iTunes)
Language : Russian
Default : No
Forced : No

Text #3
ID : 5
Format : UTF-8
Codec ID : S_TEXT/UTF8
Codec ID/Info : UTF-8 Plain Text
Title : Full (Enigma)
Language : Russian
Default : No
Forced : No

Text #4
ID : 6
Format : UTF-8
Codec ID : S_TEXT/UTF8
Codec ID/Info : UTF-8 Plain Text
Language : English
Default : No
Forced : No

Menu
00:00:00.000 : en:00:00:00.000
00:06:38.064 : en:00:06:38.064
00:15:22.046 : en:00:15:22.046
00:19:18.032 : en:00:19:18.032
00:26:01.894 : en:00:26:01.894
00:33:10.405 : en:00:33:10.405
00:39:05.426 : en:00:39:05.426
00:46:11.352 : en:00:46:11.352
00:57:34.034 : en:00:57:34.034
01:06:14.387 : en:01:06:14.387
01:15:55.801 : en:01:15:55.801
01:21:51.365 : en:01:21:51.365
01:32:18.199 : en:01:32:18.199
01:36:29.826 : en:01:36:29.826
01:53:58.331 : en:01:53:58.331
02:03:47.962 : en:02:03:47.962
Релиз от:

Автор релиза: pb.wtf



Скачать Мэри Поппинс возвращается через торрент https://b.radikal.ru/b20/1904/8c/049a9ffc8cbd.jpg Скачать фильм Мэри Поппинс возвращается через торрент бесплантно в хорошем качестве Описание: Музыкальное продолжение классической картины 1964 года рассказывает о приключениях Мэри и ее друга Джека, которым предстоит ... 10 10 1
Info! Золотая раздача, скачанное не засчитывается.
Торрент: Зарегистрирован [2019-05-03 16:10] · скачан: 223 раз
Статус: √ проверено
Размер: 1.45 GB
Как cкачать? Как скачать Мэри Поппинс возвращается через торрент | qTorrent

% Раздел Тема Автор DL S | L
T Фильмы 2018 [DVDrip, WEB-DLRip, HDrip] (DUB, MVO) [ 1.45 GB ] Мэри Поппинс возвращается / Mary Poppins Returns [2018 мюзикл BDRip-AVC] MVO [HDRezka Studio] - ExKinoRay Enigma2010 Скачать
1 | 0

28-11-2019 20:33  

Отключить всю рекламу на сайте

    Дорогой пользователь! Огромная просьба, поблагодарите релизера, оцените раздачу и оставьте свои комментарий, если Вы скачали Мэри Поппинс возвращается через торрент бесплатно! Внесите свою лепту в развитие PiratBit!
    Комментировать посты могут только пользователи прошедшие не сложную регистрацию
    Показать сообщения:    

    Мэри Поппинс возвращается через торрент
    Скачать бесплатно Мэри Поппинс возвращается
    Мэри Поппинс возвращается скачать торрент
    Мэри Поппинс возвращается смотреть онлайн
    Cкачать фильм Мэри Поппинс возвращается бесплатно
    Мэри Поппинс возвращается скачать торрент в хорошем качестве
    Мэри Поппинс возвращается смотреть онлайн бесплатно в хорошем качестве


    Вы не можете начинать темы
    Вы не можете отвечать на сообщения
    Вы не можете редактировать свои сообщения
    Вы не можете удалять свои сообщения
    Вы не можете голосовать в опросах
    Вы не можете прикреплять файлы к сообщениям
    Вы можете скачивать файлы