Ссылка на приватное зеркало нашего сайта всего за 1$. Внимание количество ограничено!!!

2 сезон

iTunes

1 сезон

1

iTunes

iTunes

iTunes

1 сезон

RePack

30

ИГРА 18+

pack

ВАЖНО

!!Акция!!

Alien_RageХит недели

RePack

MK11
pack

Забери бонус

RePack

jed

!!Акция!!

Alien_Rage

RePack

fifa19

RePack

Assassins Creed: Odyssey

RePack

NEED FOR SPEED™ PAYBACK

4 сезон

9 сезон

Бесстыжие 9 сезон

Все сериалы

все сериалы на PB.wtf

RePack

FAR CRY 5
  

Мастер охоты на единорога / Серии: 1-4 из 4 (Юрий Попович) [2019, Детектив, криминал, приключения, WEB-DL 1080p] pb.wtf

Мастер охоты на единорога через торрент pb.wtf

Размер: 6.67 GB | Добавлен: 1 год 5 мес. назад | Торрент скачан:12 раз
Скачать  

04-05-2019 02:23 Мастер охоты на единорога Скачать торрент  

Мастер охоты на единорога Год выпуска: 2019
Страна: Россия
Жанр: Детектив, криминал, приключения
Продолжительность: ~ 00:43:45
Субтитры: отсутствуют

Режиссер: Юрий Попович



В ролях:

Елена Великанова, Максим Щёголев, Любовь Германова, Валерий Сторожик, Виктория Герасимова, Дмитрий Бедерин, Кирилл Рубцов, Оксана Гуляева, Людмила Свитова, Анатолий Гущин, Анна Попова, Владимир Шульга, Алексей Гнилицкий

Описание:

На Александру Корзухину выходит необычный заказчик. Загадочность и некоторая мистичность клиента заставляет Корзухину согласиться на поиски старинного гобелена. Словно под гипнозом мужчины, Саша пускается в новое приключение, которое становится всё опаснее с каждым шагом. Очевидно, что за Единорогом охотится не она одна, но каждый, кто может пролить свет на дело, умирает до того, как Саша успевает задать вопросы. А вопросов все больше, и главный из них: что за человек этот заказчик, да и человек ли он?

Качество: WEB-DL 1080p
Формат: MKV

Видео: 1920х1080 (16:9), 25 fps, AVC MPEG-4 (x264), High@L4.0 ~ 5100 kbps avg, 0.097 bit/pixel
Аудио: 48 kHz, AC3, 2 ch, 192 kbps avg
скриншот  скриншот  скриншот  скриншот  

Общее
Уникальный идентификатор : 217870828397987813018052654751044074987 (0xA3E8652E94A322EA9712780FDDDFFDEB)
Полное имя : D:\Master.ohoty.na.edinoroga.2019.WEB-DL.(1080p).ExKinoRay\Master.ohoty.na.edinoroga.(01.seriya.iz.04).2019.WEB-DL.(1080p).ExKinoRay.mkv
Формат : Matroska
Версия формата : Version 4 / Version 2
Размер файла : 1,62 Гбайт
Продолжительность : 43 м. 45 с.
Общий поток : 5312 Кбит/сек
Дата кодирования : UTC 2019-05-03 04:43:34
Программа кодирования : mkvmerge v7.8.0 ('River Man') 32bit built on Mar 27 2015 16:18:02
Библиотека кодирования : libebml v1.3.1 + libmatroska v1.4.2

Видео
Идентификатор : 1
Формат : AVC
Формат/Информация : Advanced Video Codec
Профиль формата : High@L4
Параметр CABAC формата : Да
Параметр RefFrames формата : 4 кадра
Идентификатор кодека : V_MPEG4/ISO/AVC
Продолжительность : 43 м. 45 с.
Битрейт : 5015 Кбит/сек
Ширина : 1920 пикселей
Высота : 1080 пикселей
Соотношение сторон : 16:9
Режим частоты кадров : Постоянный
Частота кадров : 25,000 кадров/сек
Цветовое пространство : YUV
Субдискретизация насыщенности : 4:2:0
Битовая глубина : 8 бит
Тип развёртки : Прогрессивная
Бит/(Пиксели*Кадры) : 0.097
Размер потока : 1,53 Гбайт (94%)
Default : Да
Forced : Нет

Аудио
Идентификатор : 2
Формат : AC-3
Формат/Информация : Audio Coding 3
Расширение режима : CM (complete main)
Параметр Endianness формата : Big
Идентификатор кодека : A_AC3
Продолжительность : 43 м. 45 с.
Вид битрейта : Постоянный
Битрейт : 192 Кбит/сек
Каналы : 2 канала
Расположение каналов : Front: L R
Частота : 48,0 КГц
Частота кадров : 31,250 кадров/сек (1536 spf)
Метод сжатия : С потерями
Размер потока : 60,1 Мбайт (4%)
Язык : Russian
Default : Да
Forced : Нет

pb.wtf



Скачать Мастер охоты на единорога через торрент https://i110.fastpic.ru/big/2019/0502/85/ce5f03ff6a2dce0bca634d0758049585.jpg Скачать фильм Мастер охоты на единорога через торрент бесплантно в хорошем качестве Описание: На Александру Корзухину выходит необычный заказчик. Загадочность и некоторая мистичность клиента заставляет Корзухину согласиться ... 10 10 2
Торрент: Зарегистрирован [2019-05-04 02:23] · скачан: 12 раз
Статус: √ проверено
Размер: 6.67 GB
Как cкачать? Как скачать Мастер охоты на единорога через торрент | qTorrent

% Раздел Тема Автор DL S | L
Наши сериалы [ 4.14 GB ] Мастер охоты на единорога / Серии: 1-4 из 4 [2019 WEB-DL 720p] bober100 Скачать
1 | 0
Наши сериалы [ 2.26 GB ] Мастер охоты на единорога / Серии: 1-4 из 4 [2019 WEB-DLRip] bober100 Скачать
1 | 0
Наши сериалы [ 2.34 GB ] Мастер охоты на единорога / Серии: 1-4 из 4 [2019 SATRip] bober100 Скачать
1 | 0
Наши сериалы [ 2.25 GB ] Мастер охоты на единорога / Серии: 1-4 из 4 [2019 WEB-DLRip-AVC] bober100 Скачать
1 | 0
Наши сериалы [ 2.21 GB ] Мастер охоты на единорога / Серии: 1-4 из 4 [2019 экранизация SATRip-AVC] aleksan55 Скачать
1 | 0

28-11-2019 20:33  

Отключить всю рекламу на сайте

    Дорогой пользователь! Огромная просьба, поблагодарите релизера, оцените раздачу и оставьте свои комментарий, если Вы скачали Мастер охоты на единорога через торрент бесплатно! Внесите свою лепту в развитие PiratBit!
    Комментировать посты могут только пользователи прошедшие не сложную регистрацию
    Показать сообщения:    

    Мастер охоты на единорога через торрент
    Скачать бесплатно Мастер охоты на единорога
    Мастер охоты на единорога скачать торрент
    Мастер охоты на единорога смотреть онлайн
    Cкачать фильм Мастер охоты на единорога бесплатно
    Мастер охоты на единорога скачать торрент в хорошем качестве
    Мастер охоты на единорога смотреть онлайн бесплатно в хорошем качестве


    Вы не можете начинать темы
    Вы не можете отвечать на сообщения
    Вы не можете редактировать свои сообщения
    Вы не можете удалять свои сообщения
    Вы не можете голосовать в опросах
    Вы не можете прикреплять файлы к сообщениям
    Вы можете скачивать файлы