2 сезон

iTunes

1 сезон

1

iTunes

iTunes

iTunes

1 сезон

RePack

30

ИГРА 18+

pack

ВАЖНО

!!Акция!!

Alien_RageХит недели

RePack

MK11
pack

Забери бонус

RePack

jed

!!Акция!!

Alien_Rage

RePack

fifa19

RePack

Assassins Creed: Odyssey

RePack

NEED FOR SPEED™ PAYBACK

4 сезон

9 сезон

Бесстыжие 9 сезон

Все сериалы

все сериалы на PB.wtf

RePack

FAR CRY 5
  

Мастер охоты на единорога / Серии: 1-4 из 4 (Юрий Попович) [2019, Детектив, криминал, приключения, WEB-DLRip] pb.wtf

Мастер охоты на единорога через торрент pb.wtf

Размер: 2.26 GB | Добавлен: 1 год 5 мес. назад | Торрент скачан:90 раз
Скачать  

04-05-2019 02:30 Мастер охоты на единорога Скачать торрент  

Мастер охоты на единорога Год выпуска: 2019
Страна: Россия
Жанр: Детектив, криминал, приключения
Продолжительность: ~ 00:43:45
Субтитры: отсутствуют

Режиссер: Юрий Попович



В ролях:

Елена Великанова, Максим Щёголев, Любовь Германова, Валерий Сторожик, Виктория Герасимова, Дмитрий Бедерин, Кирилл Рубцов, Оксана Гуляева, Людмила Свитова, Анатолий Гущин, Анна Попова, Владимир Шульга, Алексей Гнилицкий

Описание:

На Александру Корзухину выходит необычный заказчик. Загадочность и некоторая мистичность клиента заставляет Корзухину согласиться на поиски старинного гобелена. Словно под гипнозом мужчины, Саша пускается в новое приключение, которое становится всё опаснее с каждым шагом. Очевидно, что за Единорогом охотится не она одна, но каждый, кто может пролить свет на дело, умирает до того, как Саша успевает задать вопросы. А вопросов все больше, и главный из них: что за человек этот заказчик, да и человек ли он?

Качество: WEB-DLRip
Формат: AVI

Видео: XviD, ~ 1600 Кбит/с, 720x400
Аудио: AC3, 48.0 kHz, 2/0 (L,R) ch, 192 kbps
скриншот  скриншот  скриншот  скриншот  

General
Complete name : C:06354Мастер охоты на единорога.2019.WEB-DLRip. Files-x4. Мастер охоты на единорога.2019.WEB-DLRip. Files-x.avi
Format : AVI
Format/Info : Audio Video Interleave
File size : 586 MiB
Duration : 45mn 29s
Overall bit rate : 1 802 Kbps
Writing application : VirtualDubMod 1.5.10.3 | www.virtualdub-fr.org || (build 2550/release)
Writing library : VirtualDubMod build 2550/release

Video
ID : 0
Format : MPEG-4 Visual
Format profile : Advanced Simple@L5
Format settings, BVOP : 1
Format settings, QPel : No
Format settings, GMC : No warppoints
Format settings, Matrix : Custom
Codec ID : XVID
Codec ID/Hint : XviD
Duration : 45mn 29s
Bit rate : 1 600 Kbps
Width : 720 pixels
Height : 400 pixels
Display aspect ratio : 16:9
Frame rate : 25.000 fps
Color space : YUV
Chroma subsampling : 4:2:0
Bit depth : 8 bits
Scan type : Progressive
Compression mode : Lossy
Bits/(Pixel*Frame) : 0.222
Stream size : 520 MiB (89%)
Writing library : XviD 73

Audio
ID : 1
Format : AC-3
Format/Info : Audio Coding 3
Mode extension : CM (complete main)
Codec ID : 2000
Duration : 45mn 29s
Bit rate mode : Constant
Bit rate : 192 Kbps
Channel(s) : 2 channels
Channel positions : Front: L R
Sampling rate : 48.0 KHz
Bit depth : 16 bits
Compression mode : Lossy
Stream size : 62.5 MiB (11%)
Alignment : Split accross interleaves
Interleave, duration : 40 ms (1.00 video frame)
Interleave, preload duration : 500 ms

pb.wtf



Скачать Мастер охоты на единорога через торрент https://i110.fastpic.ru/big/2019/0502/85/ce5f03ff6a2dce0bca634d0758049585.jpg Скачать фильм Мастер охоты на единорога через торрент бесплантно в хорошем качестве Описание: На Александру Корзухину выходит необычный заказчик. Загадочность и некоторая мистичность клиента заставляет Корзухину согласиться ... 10 10 4
Торрент: Зарегистрирован [2019-05-04 02:30] · скачан: 90 раз
Статус: √ проверено
Размер: 2.26 GB
Как cкачать? Как скачать Мастер охоты на единорога через торрент | qTorrent

% Раздел Тема Автор DL S | L
Наши сериалы [ 4.14 GB ] Мастер охоты на единорога / Серии: 1-4 из 4 [2019 WEB-DL 720p] bober100 Скачать
1 | 0
Наши сериалы [ 6.67 GB ] Мастер охоты на единорога / Серии: 1-4 из 4 [2019 WEB-DL 1080p] bober100 Скачать
1 | 0
Наши сериалы [ 2.34 GB ] Мастер охоты на единорога / Серии: 1-4 из 4 [2019 SATRip] bober100 Скачать
1 | 0
Наши сериалы [ 2.25 GB ] Мастер охоты на единорога / Серии: 1-4 из 4 [2019 WEB-DLRip-AVC] bober100 Скачать
1 | 0
Наши сериалы [ 2.21 GB ] Мастер охоты на единорога / Серии: 1-4 из 4 [2019 экранизация SATRip-AVC] aleksan55 Скачать
1 | 0

28-11-2019 20:33  

Отключить всю рекламу на сайте

    Дорогой пользователь! Огромная просьба, поблагодарите релизера, оцените раздачу и оставьте свои комментарий, если Вы скачали Мастер охоты на единорога через торрент бесплатно! Внесите свою лепту в развитие PiratBit!
    Комментировать посты могут только пользователи прошедшие не сложную регистрацию
    Показать сообщения:    

    Мастер охоты на единорога через торрент
    Скачать бесплатно Мастер охоты на единорога
    Мастер охоты на единорога скачать торрент
    Мастер охоты на единорога смотреть онлайн
    Cкачать фильм Мастер охоты на единорога бесплатно
    Мастер охоты на единорога скачать торрент в хорошем качестве
    Мастер охоты на единорога смотреть онлайн бесплатно в хорошем качестве


    Вы не можете начинать темы
    Вы не можете отвечать на сообщения
    Вы не можете редактировать свои сообщения
    Вы не можете удалять свои сообщения
    Вы не можете голосовать в опросах
    Вы не можете прикреплять файлы к сообщениям
    Вы можете скачивать файлы