Ссылка на приватное зеркало нашего сайта всего за 1$. Внимание количество ограничено!!!

2 сезон

iTunes

1 сезон

1

iTunes

iTunes

iTunes

1 сезон

RePack

30

ИГРА 18+

pack

ВАЖНО

!!Акция!!

Alien_RageХит недели

RePack

MK11
pack

Забери бонус

RePack

jed

!!Акция!!

Alien_Rage

RePack

fifa19

RePack

Assassins Creed: Odyssey

RePack

NEED FOR SPEED™ PAYBACK

4 сезон

9 сезон

Бесстыжие 9 сезон

Все сериалы

все сериалы на PB.wtf

RePack

FAR CRY 5
  

Мастер охоты на единорога / Серии: 1-4 из 4 (Юрий Попович) [2019, Детектив, криминал, приключения, WEB-DL 720p] pb.wtf

Мастер охоты на единорога через торрент pb.wtf

Размер: 4.14 GB | Добавлен: 1 год 5 мес. назад | Торрент скачан:39 раз
Скачать  

04-05-2019 02:30 Мастер охоты на единорога Скачать торрент  

Мастер охоты на единорога Год выпуска: 2019
Страна: Россия
Жанр: Детектив, криминал, приключения
Продолжительность: ~ 00:43:45
Субтитры: отсутствуют

Режиссер: Юрий Попович



В ролях:

Елена Великанова, Максим Щёголев, Любовь Германова, Валерий Сторожик, Виктория Герасимова, Дмитрий Бедерин, Кирилл Рубцов, Оксана Гуляева, Людмила Свитова, Анатолий Гущин, Анна Попова, Владимир Шульга, Алексей Гнилицкий

Описание:

На Александру Корзухину выходит необычный заказчик. Загадочность и некоторая мистичность клиента заставляет Корзухину согласиться на поиски старинного гобелена. Словно под гипнозом мужчины, Саша пускается в новое приключение, которое становится всё опаснее с каждым шагом. Очевидно, что за Единорогом охотится не она одна, но каждый, кто может пролить свет на дело, умирает до того, как Саша успевает задать вопросы. А вопросов все больше, и главный из них: что за человек этот заказчик, да и человек ли он?

Качество: WEB-DL 720p
Формат: AVI

Видео: MPEG4 AVC Video, H264, 16:9, 1280x720, 25 fps, ~3200 kbps, 0.139 bit/pixel
Аудио: AC3, 48.0 kHz, 2/0 (L,R) ch, 192 kbps
скриншот  скриншот  скриншот  скриншот  скриншот  

General
Unique ID : 253341434517513392104289224093158322022 (0xBE97C915D0CB7A14BB21493353CFAF66)
Complete name : D:\Master.ohoty.na.edinoroga.2019.WEB-DL.(720p).Getty\Master.ohoty.na.edinoroga.e01.2019.WEB-DL.(720p).Getty.mkv
Format : Matroska
Format version : Version 4 / Version 2
File size : 1.01 GiB
Duration : 43 min 44 s
Overall bit rate mode : Constant
Overall bit rate : 3 294 kb/s
Movie name : Master.ohoty.na.edinoroga.e01.2019.WEB-DL.(720p).Getty
Encoded date : UTC 2019-05-02 16:16:48
Writing application : mkvmerge v7.8.0 ('River Man') 32bit built on Mar 27 2015 16:18:02
Writing library : libebml v1.3.1 + libmatroska v1.4.2

Video
ID : 1
Format : AVC
Format/Info : Advanced Video Codec
Format profile : High@L4.1
Format settings : CABAC / 4 Ref Frames
Format settings, CABAC : Yes
Format settings, ReFrames : 4 frames
Codec ID : V_MPEG4/ISO/AVC
Duration : 43 min 44 s
Bit rate mode : Constant
Bit rate : 3 200 kb/s
Width : 1 280 pixels
Height : 720 pixels
Display aspect ratio : 16:9
Frame rate mode : Constant
Frame rate : 25.000 FPS
Color space : YUV
Chroma subsampling : 4:2:0
Bit depth : 8 bits
Scan type : Progressive
Bits/(Pixel*Frame) : 0.139
Stream size : 970 MiB (94%)
Default : Yes
Forced : No

Audio
ID : 2
Format : AC-3
Format/Info : Audio Coding 3
Codec ID : A_AC3
Duration : 43 min 44 s
Bit rate mode : Constant
Bit rate : 192 kb/s
Channel(s) : 2 channels
Channel positions : Front: L R
Sampling rate : 48.0 kHz
Frame rate : 31.250 FPS (1536 SPF)
Bit depth : 16 bits
Compression mode : Lossy
Stream size : 60.1 MiB (6%)
Service kind : Complete Main
Default : Yes
Forced : No

pb.wtf



Скачать Мастер охоты на единорога через торрент https://i110.fastpic.ru/big/2019/0502/85/ce5f03ff6a2dce0bca634d0758049585.jpg Скачать фильм Мастер охоты на единорога через торрент бесплантно в хорошем качестве Описание: На Александру Корзухину выходит необычный заказчик. Загадочность и некоторая мистичность клиента заставляет Корзухину согласиться ... 10 10 5
Торрент: Зарегистрирован [2019-05-04 02:30] · скачан: 39 раз
Статус: √ проверено
Размер: 4.14 GB
Как cкачать? Как скачать Мастер охоты на единорога через торрент | qTorrent

% Раздел Тема Автор DL S | L
Наши сериалы [ 2.26 GB ] Мастер охоты на единорога / Серии: 1-4 из 4 [2019 WEB-DLRip] bober100 Скачать
1 | 0
Наши сериалы [ 6.67 GB ] Мастер охоты на единорога / Серии: 1-4 из 4 [2019 WEB-DL 1080p] bober100 Скачать
1 | 0
Наши сериалы [ 2.34 GB ] Мастер охоты на единорога / Серии: 1-4 из 4 [2019 SATRip] bober100 Скачать
1 | 0
Наши сериалы [ 2.25 GB ] Мастер охоты на единорога / Серии: 1-4 из 4 [2019 WEB-DLRip-AVC] bober100 Скачать
1 | 0
Наши сериалы [ 2.21 GB ] Мастер охоты на единорога / Серии: 1-4 из 4 [2019 экранизация SATRip-AVC] aleksan55 Скачать
1 | 0

28-11-2019 20:33  

Отключить всю рекламу на сайте

    Дорогой пользователь! Огромная просьба, поблагодарите релизера, оцените раздачу и оставьте свои комментарий, если Вы скачали Мастер охоты на единорога через торрент бесплатно! Внесите свою лепту в развитие PiratBit!
    Комментировать посты могут только пользователи прошедшие не сложную регистрацию
    Показать сообщения:    

    Мастер охоты на единорога через торрент
    Скачать бесплатно Мастер охоты на единорога
    Мастер охоты на единорога скачать торрент
    Мастер охоты на единорога смотреть онлайн
    Cкачать фильм Мастер охоты на единорога бесплатно
    Мастер охоты на единорога скачать торрент в хорошем качестве
    Мастер охоты на единорога смотреть онлайн бесплатно в хорошем качестве


    Вы не можете начинать темы
    Вы не можете отвечать на сообщения
    Вы не можете редактировать свои сообщения
    Вы не можете удалять свои сообщения
    Вы не можете голосовать в опросах
    Вы не можете прикреплять файлы к сообщениям
    Вы можете скачивать файлы