Ссылка на приватное зеркало нашего сайта всего за 1$. Внимание количество ограничено!!!

2 сезон

iTunes

1 сезон

1

2 сезон

2 сезон

iTunes

1 сезон

RePack

30

Ultimate

ВАЖНО

ИГРА 18+

pack

RePack

MK11
pack

Забери бонус

RePack

jed

!!Акция!!

Alien_Rage

RePack

fifa19

RePack

Assassins Creed: Odyssey

RePack

NEED FOR SPEED™ PAYBACK

4 сезон

9 сезон

Бесстыжие 9 сезон

Все сериалы

все сериалы на PB.wtf

RePack

FAR CRY 5
  

Тайная Влacть / Deep State / Сезон: 2 / Серии: 1-8 из 8 (Роберт Коннолли, Мэттью Паркхилл) [2019, боевик, триллер, драма, WEBRip 720p] MVO [Jaskier] pb.wtf

Тайная Влacть через торрент pb.wtf

Размер: 9.41 GB | Добавлен: 1 год 4 мес. назад | Торрент скачан:5 раз
Скачать  

04-05-2019 03:18 Тайная Влacть Скачать торрент  

Тайная Влacть / Deep State Год выпуска: 2019
Страна: Великобритания
Жанр: боевик, триллер, драма
Продолжительность: ~ 00:45:00 серия
Перевод: Профессиональный (многоголосый) | Jaskier
Субтитры: отсутствуют

Режиссер: Роберт Коннолли, Мэттью Паркхилл

rating

В ролях: Марк Стронг, Джозеф Демпси, Карима МакАдамс, Лайн Рени, Анастасия Гриффит, Алистэр Петри, Амелия Баллмор, Кингсли Бен-Адир, Зубин Варла, Мел Райдо

Описание: Действие сериала развертывается вокруг Макса Истона, бывшего спецагента, вынужденного вернуться на службу, чтобы отомстить за смерть своего сына. Он окажется в самом центре тайной войны, которую ведут спецслужбы, и заговора, нацеленного на то, чтобы извлечь максимальную прибыль от распространения хаоса на Ближнем Востоке. Эта история ставит вопрос, можем ли мы убежать от своего прошлого? Действительно ли существует такая вещь, как второй шанс?

Качество: WEBRip 720p
Формат: MKV

Видео: MPEG-4 AVC, ~ 3000 Кбит/с, 1280x720
Аудио: Русский, (AC3, 2 ch, 384 Кбит/с)
скриншот  скриншот  скриншот  

Общее
Уникальный идентификатор : 247786968613064277262721712526472196729 (0xBA6A08C5CB0C59E6BCF1F4D50DCB3279)
Полное имя : D:\Deep State. Season 2 (WEBRip l 720p l Jaskier)\Deep.State.S02E01.720p.x264-Jaskier.mkv
Формат : Matroska
Версия формата : Version 2
Размер файла : 1,22 Гбайт
Продолжительность : 56 м. 8 с.
Режим общего битрейта : Переменный
Общий поток : 3122 Кбит/сек
Дата кодирования : UTC 2019-05-03 13:47:56
Программа кодирования : mkvmerge v7.8.0 ('River Man') 32bit built on Apr 3 2015 12:11:22
Библиотека кодирования : libebml v1.3.1 + libmatroska v1.4.2

Видео
Идентификатор : 1
Формат : AVC
Формат/Информация : Advanced Video Codec
Профиль формата : High@L4.1
Параметр CABAC формата : Да
Параметр RefFrames формата : 9 кадров
Идентификатор кодека : V_MPEG4/ISO/AVC
Продолжительность : 56 м. 8 с.
Вид битрейта : Переменный
Битрейт : 2676 Кбит/сек
Номинальный битрейт : 3000 Кбит/сек
Максимальный битрейт : 3000 Кбит/сек
Ширина : 1280 пикселей
Высота : 720 пикселей
Соотношение сторон : 16:9
Режим частоты кадров : Постоянный
Частота кадров : 23,976 (24000/1001) кадра/сек
Стандарт вещания : Component
Цветовое пространство : YUV
Субдискретизация насыщенности : 4:2:0
Битовая глубина : 8 бит
Тип развёртки : Прогрессивная
Бит/(Пиксели*Кадры) : 0.121
Размер потока : 1,05 Гбайт (86%)
Библиотека кодирования : x264 core 148
Настройки программы : cabac=1 / ref=9 / deblock=1:0:0 / analyse=0x3:0x3 / me=dia / subme=1 / psy=1 / psy_rd=1.00:0.00 / mixed_ref=0 / me_range=16 / chroma_me=1 / trellis=0 / 8x8dct=1 / cqm=1 / deadzone=21,11 / fast_pskip=1 / chroma_qp_offset=0 / threads=18 / lookahead_threads=3 / sliced_threads=0 / slices=1 / nr=0 / decimate=1 / interlaced=0 / minigop=0 / stitchable=1 / constrained_intra=0 / bframes=3 / b_pyramid=0 / b_adapt=0 / b_bias=0 / direct=1 / weightb=1 / open_gop=1 / weightp=0 / keyint=250 / keyint_min=23 / scenecut=40 / intra_refresh=0 / rc_lookahead=0 / rc=cbr / mbtree=0 / bitrate=3000 / ratetol=1.0 / qcomp=0.60 / qpmin=1 / qpmax=69 / qpstep=4 / vbv_maxrate=3000 / vbv_bufsize=3000 / nal_hrd=vbr / filler=0 / ip_ratio=1.40 / pb_ratio=1.30 / aq=1:1.00
Язык : English
Default : Да
Forced : Нет
Цветовой диапазон : Limited
Основные цвета : BT.709
Характеристики трансфера : BT.709
Коэффициенты матрицы : BT.709

Аудио
Идентификатор : 2
Формат : AC-3
Формат/Информация : Audio Coding 3
Расширение режима : CM (complete main)
Параметр Endianness формата : Big
Идентификатор кодека : A_AC3
Продолжительность : 56 м. 8 с.
Вид битрейта : Постоянный
Битрейт : 384 Кбит/сек
Каналы : 2 канала
Расположение каналов : Front: L R
Частота : 48,0 КГц
Частота кадров : 31,250 кадров/сек (1536 spf)
Метод сжатия : С потерями
Размер потока : 154 Мбайт (12%)
Заголовок : Jaskier
Язык : Russian
Default : Да
Forced : Нет

Раздача ведётся путём добавления новых серий; при каждом добавлении создаётся новый торрент.
Чтобы начать докачку новой серии, пользователям необходимо сделать следующее:
1. остановить скачивание,
2. удалить старый торрент у себя из клиента (старые серии удалять не надо),
3. скачать новый торрент и запустить его у себя в клиенте вместо старого, при этом указать клиенту путь в старую папку, куда и должно происходить скачивание новых серий.

Ваш клиент при этом должен произвести хеширование (проверку) старой папки (если не производит сам - помогите ему сделать это), и будет докачивать только те серии которых у вас ещё нет. Старые серии при этом не удаляются, а продолжают раздаваться!

Eсли вы уже удалили старые серии, то предотвратить повторную закачку старых серий можно, отжав галочку в соответствующих местах при запуске нового торрента. По возможности, желательно не удалять старые серии как можно дольше, чтобы релизёр не столько продолжал раздавать старые серии, а смог сконцентрироваться на новых.

Совет для тех, кто не хочет ждать перехеширования:
Создайте ещё одну папку рядом с папкой сериала (рядом, а не в ней!!!). Каждую новую серию после удачной загрузки копируйте в новую папку так чтобы ваша основная папка всегда была пуста. Когда ваш новый торрент предложит вам закачать все файлы, выберете только последнюю. Для сидирования же укажите адрес новой папки.

Как закачать отдельный файл из торрента или докачать ранее пропущенные файлы торрента!
pb.wtf



Скачать Тайная Влacть через торрент https://d.radikal.ru/d38/1905/db/023cc33bab5b.jpg Скачать фильм Тайная Влacть через торрент бесплантно в хорошем качестве Описание: Действие сериала развертывается вокруг Макса Истона, бывшего спецагента, вынужденного вернуться на службу, чтобы отомстить за ... 9.8 10 4
Торрент: Зарегистрирован [2019-07-23 14:30] · скачан: 5 раз
Статус: √ проверено
Размер: 9.41 GB
Как cкачать? Как скачать Тайная Влacть через торрент | qTorrent

% Раздел Тема Автор DL S | L
Зарубежные сериалы [ 14.32 GB ] Тайная Влacть / Deep State / Сезон: 2 / Серии: 1-8 из 8 [2019 WEBRip 720p] [MVO] killermax2013 Скачать
1 | 0

28-11-2019 20:33  

Отключить всю рекламу на сайте

    Дорогой пользователь! Огромная просьба, поблагодарите релизера, оцените раздачу и оставьте свои комментарий, если Вы скачали Тайная Влacть через торрент бесплатно! Внесите свою лепту в развитие PiratBit!
    Комментировать посты могут только пользователи прошедшие не сложную регистрацию
    Показать сообщения:    

    Тайная Влacть через торрент
    Скачать бесплатно Тайная Влacть
    Тайная Влacть скачать торрент
    Тайная Влacть смотреть онлайн
    Cкачать фильм Тайная Влacть бесплатно
    Тайная Влacть скачать торрент в хорошем качестве
    Тайная Влacть смотреть онлайн бесплатно в хорошем качестве


    Вы не можете начинать темы
    Вы не можете отвечать на сообщения
    Вы не можете редактировать свои сообщения
    Вы не можете удалять свои сообщения
    Вы не можете голосовать в опросах
    Вы не можете прикреплять файлы к сообщениям
    Вы можете скачивать файлы