Доктор Стрэндж

Лицензия

Добыча

Дубляж

Дом дракона

1 сезон

Тор

Дубляж

В эфире

Дубляж

Там, где раки поют

MVO

Властелин колец

1 сезон

Deluxe

pack

Рекомендуем

30

Пиратка

ВАЖНО

ВАЖНО

Ghostwire

Пиратка

jed

RePack

nioh2

RePack

RDR2

RePack

NEED FOR SPEED™ PAYBACK

RePack

скачать торрент

Кинопоиск HD

Острые козырьки 6 сезон

6 сезон

FAR CRY 6

RePack

скачать торрент

Лицензия

скачать торрент

MVO

1

1 сезон

скачать торрент

1 сезон

скачать торрент

Лицензия

  

Чужое лицо / Сезон: 1 / Серии: 1-20 из 20 (Иван Криворучко (мл.), Григорий Жихаревич) [2017, драма, криминал, HDTVRip]

Чужое лицо через торрент pb.wtf

Размер: 11.82 GB | Добавлен: 3 года 6 мес. назад | Торрент скачан:94 раза
Смотреть онлайн | Скачать   

04-05-2019 05:42 Чужое лицо Скачать торрент  

Чужое лицо Год выпуска: 2017
Страна: Россия
Жанр: драма, криминал
Продолжительность: ~ 00:45:00
Субтитры: отсутствуют

Режиссер: Иван Криворучко (мл.), Григорий Жихаревич



В ролях:

Алексей Кравченко, Антон Момот, Валерий Соловьёв, Наталья Ткаченко, Аркадий Шароградский, Никита Барсуков, Ольга Павлюкова, Евгений Ганелин, Георгий Маришин, Роман Жилкин, Сергей Лысов, Сергей Бызгу, Василий Щипицын, Евгений Славский, Константин Анисимов, Никита Плащевский

Описание:

Расследуя гибель известного бандита, следователь Егор Котов (он же «Гора») с ужасом узнал на месте преступления своего родного сына Дениса. Выясняется, что теперь его сын - сотрудник полиции, работающий под прикрытием. Однако, операция, которая готовилась годами сорвана. Ситуация выходит из-под контроля, и волею случая Денис отправляется в Соловецк, куда ведут нити зреющего заговора. Котов устремляется на его поиски, но оказывается в центре нового конфликта. Теперь, в чужом городе, под чужим именем, он - внедренный в мафию сотрудник полиции. Здесь он не Котов, а Евгений Лаврин. И ему предстоит раскрыть серию преступлений в Соловецке, и - самое главное - во что бы то ни стало найти своего сына!

Качество: HDTVRip
Формат: AVI

Видео: 720x400 (16:9), 25.000 fps, XviD build 73, 1600 Kbps, 0.22 bits/pixel
Аудио: AC3, 48.0 kHz, 2/0 (L,R) ch, 192 kbps
скриншот  скриншот  скриншот  скриншот  скриншот  

General
Complete name : Downloads\Чужое лицо.2017.HDTVRip.Files-x\01.Чужое лицо.2017.HDTVRip.Files-x.avi
Format : AVI
Format/Info : Audio Video Interleave
File size : 650 MiB
Duration : 50mn 25s
Overall bit rate : 1 802 Kbps
Writing application : VirtualDubMod 1.5.10.3 | www.virtualdub-fr.org || (build 2550/release)
Writing library : VirtualDubMod build 2550/release
Video #0
ID : 0
Format : MPEG-4 Visual
Format profile : Advanced [email protected]
Format settings, BVOP : 1
Format settings, QPel : No
Format settings, GMC : No warppoints
Format settings, Matrix : Custom
Codec ID : XVID
Codec ID/Hint : XviD
Duration : 50mn 25s
Bit rate : 1 600 Kbps
Width : 720 pixels
Height : 400 pixels
Display aspect ratio : 16:9
Frame rate : 25.000 fps
Color space : YUV
Chroma subsampling : 4:2:0
Bit depth : 8 bits
Scan type : Progressive
Compression mode : Lossy
Bits/(Pixel*Frame) : 0.222
Stream size : 577 MiB (89%)
Writing library : XviD 73
Audio #1
ID : 1
Format : AC-3
Format/Info : Audio Coding 3
Mode extension : CM (complete main)
Format settings, Endianness : Big
Codec ID : 2000
Duration : 50mn 25s
Bit rate mode : Constant
Bit rate : 192 Kbps
Channel(s) : 2 channels
Channel positions : Front: L R
Sampling rate : 48.0 KHz
Bit depth : 16 bits
Compression mode : Lossy
Stream size : 69.2 MiB (11%)
Alignment : Split accross interleaves
Interleave, duration : 40 ms (1.00 video frame)
Interleave, preload duration : 500 ms




Скачать Чужое лицо через торрент https://a.radikal.ru/a18/1905/6e/881b702cad9b.jpg Скачать, смотреть онлайн Чужое лицо бесплантно в хорошем качестве Описание: Расследуя гибель известного бандита, следователь Егор Котов (он же «Гора») с ужасом узнал на месте преступления своего родного ... 9 10 6
Торрент: Зарегистрирован [2019-05-04 05:42] · скачан: 94 раз
Статус: √ проверено
Размер: 11.82 GB
Как cкачать? Как скачать Чужое лицо через торрент | UTorrent

% Раздел Тема Автор DL S | L
Наши сериалы [ 25.79 GB ] Чужое лицо / Сезон: 1 / Серии: 1-20 из 20 | | HDTVRip 720p bober100 Скачать
1 | 0
Наши сериалы [ 43.49 GB ] Чужое лицо / Сезон: 1 / Серии: 1-20 из 20 | | 1080p bober100 Скачать
1 | 0
Наши сериалы [ 15.3 GB ] Чужое лицо / Сезон: 1 / Серии: 1-20 из 20 | | HDTVRip-AVC bober100 Скачать
1 | 0
Наши сериалы [ 13.38 GB ] Чужое лицо / Серия 1-20 из 20 | | SATRip oleg8 Скачать
1 | 0

28-11-2019 20:33  


Отключить вcю реклaмy на сайте, в т.ч. и в плеере онлайн просмотра!

04-05-2019 17:08 Чужое лицо Скачать торрент  

как сериал?? смотрел кто??



    Дорогой пользователь! Огромная просьба, поблагодарите релизера, оцените раздачу и оставьте свои комментарий, если Вы скачали Чужое лицо через торрент бесплатно!!
    Комментировать посты могут только пользователи прошедшие не сложную регистрацию
    Показать сообщения:    


    Чужое лицо через торрент
    Скачать бесплатно Чужое лицо
    Чужое лицо скачать торрент
    Чужое лицо смотреть онлайн
    Cкачать фильм Чужое лицо бесплатно
    Чужое лицо скачать торрент в хорошем качестве
    Чужое лицо смотреть онлайн бесплатно в хорошем качестве
    Вы не можете начинать темы
    Вы не можете отвечать на сообщения
    Вы не можете редактировать свои сообщения
    Вы не можете удалять свои сообщения
    Вы не можете голосовать в опросах
    Вы не можете прикреплять файлы к сообщениям
    Вы можете скачивать файлы
    Чужое лицо / Сезон: 1 / Серии: 1-20 из 20 , Григорий Жихаревич) [2017, драма, криминал, HDTVRip] смотреть онлайн, скачать торрент picoco.icu