Ссылка на приватное зеркало нашего сайта всего за 1$. Внимание количество ограничено!!!

2 сезон

iTunes

1 сезон

1

2 сезон

2 сезон

iTunes

1 сезон

RePack

30

Новинка

ВАЖНО

ИГРА 18+

pack

RePack

MK11
pack

Забери бонус

RePack

jed

!!Акция!!

Alien_Rage

RePack

fifa19

RePack

Assassins Creed: Odyssey

RePack

NEED FOR SPEED™ PAYBACK

4 сезон

9 сезон

Бесстыжие 9 сезон

Все сериалы

все сериалы на PB.wtf

RePack

FAR CRY 5
  

Проект «Синяя книга» / Project Blue Book / Сезон 1 / Серии 1-10 из 10 (Роберт Стромберг, Пит Трэвис, Норма Бэйли) [2019, Фантастика, детектив, история, WEB-DLRip] [MVO] (AlexFilm) pb.wtf

Проект «Синяя книга» через торрент pb.wtf

Раздают: 1 [ 0 KB/s ]
Размер: 5 GB | Добавлен: 1 год 8 мес. назад | Торрент скачан:26 раз
Скачать  

16-01-2019 18:59 Проект «Синяя книга» Скачать торрент  



Проект «Синяя книга» / Project Blue Book


Год выпуска: 2019
Страна: США
Жанр: Фантастика, детектив, история
Продолжительность: ~00:45:00
Озвучание: Профессиональное (многоголосое, закадровое) (AlexFilm)
Режиссер: Роберт Стромберг, Пит Трэвис, Норма Бэйли

В ролях: Эйдан Гиллен, Майкл Маларки, Лаура Меннелл, Ксения Соло, Майкл Харни, Нил МакДонаф, Роберт Джон Бёрк, Джилл Моррисон, Хезер Дорксен, Николас Холмс и др.
Описание: Пятидесятые годы прошлого века. Астроном Дж. Аллен Хинек и капитан ВВС США Майкл Квинн разбираются со свидетельствами появления НЛО. В ходе расследования они натыкаются на правительственный заговор, скрывающий от населения правду.
Релиз:

Перевод: Алиса Галланова
Монтаж и сведение звука: Константин Федосеев
Роли озвучивали:
    • Татьяна Манетина
    • Екатерина Муравицкая
    • Константин Погодаев
    • Алексей Никитин
    • Кирилл Патрино
    • Михаил Федосеев

Сэмпл: http://sendfile.su/1468563
rating
Качество: WEB-DLRip
Формат: AVI
Видео: 704x352 (2,35:1), 23.976 fps, XviD ~1400 kbps avg, 0.23 bit/pixel
Аудио Rus: 48 kHz, MPEG Layer 3, 2 ch, ~128.00 kbps avg
Аудио Eng: 48 kHz, MPEG Layer 3, 2 ch, ~128.00 kbps avg
Субтитры: нет
скриншот  скриншот  скриншот  
Формат : AVI
Формат/Информация : Audio Video Interleave
Размер файла : 520 Мбайт
Продолжительность : 44 м. 23 с.
Общий поток : 1638 Кбит/сек
Название фильма : Project Blue Book 1x01 @ AlexFilm
Программа кодирования : VirtualDubMod 1.5.10.2 (build 2540/release)
Библиотека кодирования : VirtualDubMod build 2540/release

Видео
Идентификатор : 0
Формат : MPEG-4 Visual
Профиль формата : Advanced Simple@L5
Параметр BVOP формата : Нет
Параметр QPel формата : Нет
Параметр GMC формата : Без точки перехода
Параметр матрицы формата : Default (MPEG)
Идентификатор кодека : XVID
Идентификатор кодека/Подсказка : XviD
Продолжительность : 44 м. 23 с.
Битрейт : 1368 Кбит/сек
Ширина : 704 пикселя
Высота : 352 пикселя
Соотношение сторон : 2,000
Частота кадров : 23,976 (23976/1000) кадра/сек
Цветовое пространство : YUV
Субдискретизация насыщенности : 4:2:0
Битовая глубина : 8 бит
Тип развёртки : Прогрессивная
Метод сжатия : С потерями
Бит/(Пиксели*Кадры) : 0.230
Размер потока : 434 Мбайт (84%)
Библиотека кодирования : XviD 67

Аудио #1
Идентификатор : 1
Формат : MPEG Audio
Версия формата : Version 1
Профиль формата : Layer 3
Идентификатор кодека : 55
Идентификатор кодека/Подсказка : MP3
Продолжительность : 44 м. 23 с.
Вид битрейта : Постоянный
Битрейт : 128 Кбит/сек
Каналы : 2 канала
Частота : 48,0 КГц
Метод сжатия : С потерями
Размер потока : 40,6 Мбайт (8%)
Выравнивание : Соединение по промежуткам
Продолжительность промежутка : 42 мс. (1,00 видеокадр)
Время предзагрузки промежутка : 504 мс.
Заголовок : Russian (AlexFilm)

Аудио #2
Идентификатор : 2
Формат : MPEG Audio
Версия формата : Version 1
Профиль формата : Layer 3
Режим : Joint stereo
Расширение режима : MS Stereo
Идентификатор кодека : 55
Идентификатор кодека/Подсказка : MP3
Продолжительность : 44 м. 23 с.
Вид битрейта : Постоянный
Битрейт : 128 Кбит/сек
Каналы : 2 канала
Частота : 48,0 КГц
Метод сжатия : С потерями
Размер потока : 40,6 Мбайт (8%)
Выравнивание : Соединение по промежуткам
Продолжительность промежутка : 42 мс. (1,00 видеокадр)
Время предзагрузки промежутка : 504 мс.
Заголовок : English
Библиотека кодирования : LAME3.90.3ЄЄЄЄЄЄЄЄЄЄ
Внимание! Раздача ведётся путём добавления новых серий; при каждом добавлении создаётся новый торрент. Чтобы начать докачку новой серии, пользователям необходимо сделать следующее:
(1) остановить скачивание,
(2) удалить старый торрент у себя из клиента (старые серии удалять не надо),
(3) скачать новый торрент и запустить его у себя в клиенте вместо старого, при этом указать клиенту путь в старую папку куда и должно происходить скачивание новых серий.
Ваш клиент при этом должен произвести хеширование (проверку) старой папки (если не производит сам - помогите ему сделать это), и будет докачивать только те серии которых у вас ещё нет. Старые серии при этом не удаляются, а продолжают раздаваться!
Eсли вы уже удалили старые серии, то предотвратить повторную закачку старых серий можно, отжав галочку в соответствующих местах при запуске нового торрента. По возможности, желательно не удалять старые серии как можно дольше чтобы релизёр не столько продолжал раздавать старые серии, а смог сконцентрироваться на новых.
pb.wtf



Скачать Проект «Синяя книга» через торрент https://i109.fastpic.ru/big/2019/0116/c3/eb975e60ad1a157de1ffb304abb16dc3.jpg Скачать фильм Проект «Синяя книга» через торрент бесплантно в хорошем качестве Описание: Пятидесятые годы прошлого века. Астроном Дж. Аллен Хинек и капитан ВВС США Майкл Квинн разбираются со свидетельствами появления ... 6.4 10 5
Торрент: Зарегистрирован [2019-03-18 11:58] · скачан: 26 раз
Статус: √ проверено
Размер: 5 GB
Как cкачать? Как скачать Проект «Синяя книга» через торрент | qTorrent

% Раздел Тема Автор DL S | L
Зарубежные сериалы [ 10.97 GB ] Проект засекречен / Проект "Синяя книга" / Project Blue Book / Сезон: 2 / Серия: 1-10 из 10 [2020 WEB-DL 720p] MVO [AlexFilm] bober100 Скачать
2 | 0
Зарубежные сериалы [ 6.09 GB ] Проект засекречен / Проект "Синяя книга" / Project Blue Book / Сезон: 2 / Серия: 1-9 из 10 [2020 WEB-DLRip] MVO [TVShows] bober100 Скачать
1 | 0
Зарубежные сериалы [ 11.17 GB ] Проект «Синяя книга» / Проект засекречен / Project Blue Book / Сезон: 2 / Серии: 1-10 из 10 [2020 WEB-DL 720p] [MVO] killermax2013 Скачать
1 | 0
Зарубежные сериалы [ 21.8 GB ] Проект «Синяя книга» / Проект засекречен / Project Blue Book / Сезон: 2 / Серии: 1-10 из 10 [2020 WEB-DL 1080p] [MVO] killermax2013 Скачать
1 | 0
Зарубежные сериалы [ 619 MB ] Проект засекречен / Проект "Синяя книга" / Project Blue Book / Сезон: 2 / Серия: 1- из 10 [2020 WEB-DLRip] MVO [Кириллица] bober100 Скачать
1 | 0
Зарубежные сериалы [ 6.15 GB ] Проект засекречен / Проект "Синяя книга" / Project Blue Book / Сезон: 2 / Серия: 1-10 из 10 [2020 WEB-DLRip] MVO [Lostfilm] bober100 Скачать
2 | 0
Зарубежные сериалы [ 21.02 GB ] Проект засекречен / Проект "Синяя книга" / Project Blue Book / Сезон: 2 / Серия: 1-10 из 10 [2020 WEB-DL 1080p] MVO [Кириллица] bober100 Скачать
1 | 0

28-11-2019 20:33  

Отключить всю рекламу на сайте

    Дорогой пользователь! Огромная просьба, поблагодарите релизера, оцените раздачу и оставьте свои комментарий, если Вы скачали Проект «Синяя книга» через торрент бесплатно! Внесите свою лепту в развитие PiratBit!
    Комментировать посты могут только пользователи прошедшие не сложную регистрацию
    Показать сообщения:    

    Проект «Синяя книга» через торрент
    Скачать бесплатно Проект «Синяя книга»
    Проект «Синяя книга» скачать торрент
    Проект «Синяя книга» смотреть онлайн
    Cкачать фильм Проект «Синяя книга» бесплатно
    Проект «Синяя книга» скачать торрент в хорошем качестве
    Проект «Синяя книга» смотреть онлайн бесплатно в хорошем качестве


    Вы не можете начинать темы
    Вы не можете отвечать на сообщения
    Вы не можете редактировать свои сообщения
    Вы не можете удалять свои сообщения
    Вы не можете голосовать в опросах
    Вы не можете прикреплять файлы к сообщениям
    Вы можете скачивать файлы