новый адрес пиратбит piratbit
Мега распродажа FORZA HORIZON 4 ULTIMATE+ВСЕ DLC+ОНЛАЙН всего за 499р. 349 руб. (супер цена). Внимание количество ограничено!!!

iTunes

1+1

iTunes

мы

iTunes

1

iTunes

Чернобыль

iTunes

Ральф против интернета

Лицензия

ПШазам

Лицензия

Игра престолов

Лицензия

30
pack

ВАЖНО

!!Акция!!

Alien_RageХит недели

RePack

Resident Evil 21

ИГРА 18+

pack

RePack

Metro:Exodus

!!Акция!!

Alien_Rage

RePack

fifa19

RePack

Assassins Creed: Odyssey

RePack

NEED FOR SPEED™ PAYBACK

3 сезон

9 сезон

Бесстыжие 9 сезон

Все сериалы

все сериалы на PB.wtf

RePack

FAR CRY 5
Ребята, катастрофически не хватает 1900р. для оплаты серверов за Октябрь (всвязи с блокировками трафик упал в 3 раза), 1-2р., выручайте.
  

Полицейский с Рублёвки. Новогодний беспредел (Илья Куликов) [2018 г., Комедия, SATRip] pb.wtf

Полицейский с Рублёвки. Новогодний беспредел через торрент pb.wtf

Раздают: 14 [ 18 KB/s ]
Размер: 1.25 GB | Добавлен: 6 мес. назад | Торрент скачан:2060 раз
Скачать  

04-05-2019 10:27 Полицейский с Рублёвки. Новогодний беспредел Скачать торрент  

Полицейский с Рублёвки. Новогодний беспредел
Год выпуска: 2018
Страна: Россия
Жанр: Комедия
Продолжительность: 01:27:30

Режиссер: Илья Куликов



В ролях: Александр Петров, Сергей Бурунов, Александра Бортич, Татьяна Бабенкова, Софья Каштанова, Роман Попов, Рина Гришина, Ирина Вилкова, Ростислав Гулбис, Сергей Штатнов, Александр Дерепко, Сергей Комаров

Описание: По сюжету, в канун нового года отделение полиции «Барвиха Северное» оказывается под угрозой закрытия. Чтобы спасти родной отдел, полицейский с Рублевки Гриша Измайлов вынужден пойти на крайние меры и вместе с оперативниками решает ограбить банк. Он рассчитывает на то, что его коллеги, вместе с начальником отдела Яковлевым, легко раскроют это дело, деньги вернут обратно, и все сохранят работу в следующем году. Но все идет не так, как задумал Гриша...

Качество: SATRip
Формат: AVI
Видео кодек: XviD
Аудио кодек: MP3
Видео: XviD, 1849 Кбит/с, 720x400
Аудио#1: Русский, MP3, 2 ch, 192 Кбит/с
Видео
Идентификатор : 0
Формат : MPEG-4 Visual
Профиль формата : Advanced Simple@L5
Настройки формата : BVOP1
Параметр BVOP формата : 1
Параметр QPel формата : Нет
Параметр GMC формата : Без точки перехода
Параметр матрицы формата : Default (MPEG)
Идентификатор кодека : XVID
Идентификатор кодека/Подсказка : XviD
Продолжительность : 1 ч. 27 м.
Битрейт : 1849 Кбит/сек
Ширина : 720 пикселей
Высота : 304 пикселя
Соотношение сторон : 2,35:1
Частота кадров : 25,000 кадров/сек
Цветовое пространство : YUV
Субдискретизация насыщенности : 4:2:0
Битовая глубина : 8 бит
Тип развёртки : Прогрессивная
Метод сжатия : С потерями
Бит/(Пиксели*Кадры) : 0.338
Размер потока : 1,13 Гбайт (90%)
Библиотека кодирования : XviD 73

Аудио
Идентификатор : 1
Формат : MPEG Audio
Версия формата : Version 1
Профиль формата : Layer 3
Настройки формата : Joint stereo
Идентификатор кодека : 55
Идентификатор кодека/Подсказка : MP3
Продолжительность : 1 ч. 27 м.
Вид битрейта : Постоянный
Битрейт : 192 Кбит/сек
Каналы : 2 канала
Частота : 48,0 КГц
Частота кадров : 41,667 кадра/сек (1152 SPF)
Метод сжатия : С потерями
Размер потока : 120 Мбайт (9%)
Выравнивание : Соединение по промежуткам
Продолжительность промежутка : 40 мс. (1,00 видеокадр)
Время предзагрузки промежутка : 504 мс.
Библиотека кодирования : LAME3.99r
Настройки программы : -m j -V 4 -q 2 -lowpass 18.6 -b 192
скриншот   скриншот   скриншот   скриншот   скриншот  
pb.wtf



Скачать Полицейский с Рублёвки. Новогодний беспредел через торрент http://pic1.kartinco.top/images/12/jq5qs.jpg Скачать фильм Полицейский с Рублёвки. Новогодний беспредел через торрент бесплантно в хорошем качестве Описание: По сюжету, в канун нового года отделение полиции «Барвиха Северное» оказывается под угрозой закрытия. Чтобы спасти родной отдел, ... 9.8 10 55
Info! Золотая раздача, скачанное не засчитывается.
Торрент: Зарегистрирован [2019-05-04 10:27] · скачан: 2 060 раз
Статус: √ проверено
Размер: 1.25 GB
Как cкачать? Как скачать Полицейский с Рублёвки. Новогодний беспредел через торрент | qTorrent

% Раздел Тема Автор DL S | L
Наши новые фильмы 2018-2019 [ 1.37 GB ] Полицейский с Рублёвки. Новогодний беспредел [2018 WEB-DLRip] bober100 Скачать
12 | 0
Наши фильмы (HD, WEB-DL 720p, 1080p) [ 5.15 GB ] Полицейский с Рублёвки. Новогодний беспредел [2018 HDTV Оригинал] Бумер Скачать
15 | 0
Наши фильмы (HD, WEB-DL 720p, 1080p) [ 3.26 GB ] Полицейский с Рублёвки. Новогодний беспредел [2018 WEB-DL 1080p Оригинальный] Яйцеслав Скачать
25 | 1


Последний раз редактировалось: Леонид Ильич (2019-05-04 12:23), всего редактировалось 2 раз(а)


>> Регистрируемся здесь <<






Отзывы и комментарии о схеме читаем и пишем здесь: ---> Отзывы и комментарии о схеме

Новые благодарочки в телеграм довольных пользователей:
скриншот   скриншот   скриншот   скриншот   скриншот

04-05-2019 10:54 Полицейский с Рублёвки. Новогодний беспредел Скачать торрент  

ЛеонидИльич, Ну прям ждал. Уважил. Качество лучше будет?pb.wtf



04-05-2019 11:22 Полицейский с Рублёвки. Новогодний беспредел Скачать торрент  

а то в 18 часов в 18 часов только на ТНТ здесь и сейчас piratBit мощь и сила, спасибо релизер pb.wtf



04-05-2019 11:43 Полицейский с Рублёвки. Новогодний беспредел Скачать торрент  

Не уж то посмотрим ) С нового года не могли выпустить... Но подожду чуть качестваpb.wtf



04-05-2019 12:07 Полицейский с Рублёвки. Новогодний беспредел Скачать торрент  

Марвел и то быстрее выходит мля pb.wtf



04-05-2019 13:09 Полицейский с Рублёвки. Новогодний беспредел Скачать торрент  

vanes19, а про часовые пояса нет , не слышал?pb.wtf



04-05-2019 13:12 Полицейский с Рублёвки. Новогодний беспредел Скачать торрент  

ну спасибо pb.wtf



06-05-2019 18:00 Полицейский с Рублёвки. Новогодний беспредел Скачать торрент  

Огромнейшее СПАСИБО!!! pb.wtf



    Дорогой пользователь! Огромная просьба, поблагодарите релизера, оцените раздачу и оставьте свои комментарий, если Вы скачали Полицейский с Рублёвки. Новогодний беспредел через торрент бесплатно! Внесите свою лепту в развитие PiratBit!
    Комментировать посты могут только пользователи прошедшие не сложную регистрацию
    Показать сообщения:    

    Полицейский с Рублёвки. Новогодний беспредел через торрент
    Скачать бесплатно Полицейский с Рублёвки. Новогодний беспредел
    Полицейский с Рублёвки. Новогодний беспредел скачать торрент
    Полицейский с Рублёвки. Новогодний беспредел смотреть онлайн
    Cкачать фильм Полицейский с Рублёвки. Новогодний беспредел бесплатно
    Полицейский с Рублёвки. Новогодний беспредел скачать торрент в хорошем качестве
    Полицейский с Рублёвки. Новогодний беспредел смотреть онлайн бесплатно в хорошем качестве


    Вы не можете начинать темы
    Вы не можете отвечать на сообщения
    Вы не можете редактировать свои сообщения
    Вы не можете удалять свои сообщения
    Вы не можете голосовать в опросах
    Вы не можете прикреплять файлы к сообщениям
    Вы можете скачивать файлы