Всегда рабочее зеркало без VPN и Proxy просто перед .vidak.icu напиши любое слово или цифру, Пример http://2fj2.vidak.icu

MVO

2 сезон

2 сезон

1

1 сезон

iTunes

2 сезон

13

1 сезон

Распродажа

pack

Рекомендуем

Пиратка

30

ВАЖНО

RePack

MK11

RePack

jed

RePack

fifa19

RePack

RDR2

RePack

NEED FOR SPEED™ PAYBACK

Кинопоиск HD

6 сезон

 Острые козырьки 6 сезон

Все сериалы

все сериалы на PB.wtf

RePack

FAR CRY 5

Anonymous, нам критически не хватает 5601 руб. на оплату серверов и переферии за Апрель, помоги нам пожалуйста, вся надежда только на тебя. В благодарность мы отключим тебе всю рекламу на сайте!

×
  
Magnet ссылка

Последний герой. Актёры против экстрасенсов, 10-ая серия [04.05.2019, реалити-шоу, WEB-DL 720p] pb.wtf

Последний герой. Актёры против экстрасенсов, 10-ая серия через торрент pb.wtf

Размер: 1.26 GB | Добавлен: 3 года назад | Торрент скачан:33 раза
Смотреть онлайн Последний герой. Актёры против экстрасенсов, 10-ая серия | Скачать    Ребята, помогите собрать деньги на оплату серверов!!!

04-05-2019 18:57 Последний герой. Актёры против экстрасенсов, 10-ая серия Скачать торрент  

Последний герой. Актёры против экстрасенсов, 10-ая серия

Дата/Год выпуска: 04.05.2019
Страна: Россия
Жанр: реалити-шоу
Продолжительность: 00:58:03
Перевод: Не требуется
Телеканал: ТВ 3
Ведущая: Яна Троянова
Описание: Перезапуск легендарного шоу «Последний герой»! Новые герои, новые испытания – в уже известном формате реалити-шоу. Действие развернется на острове Палаван на Филиппинах, где 16 участников (среди которых актеры и экстрасенсы) будут проверять себя на прочность и бороться за главный приз в 2 млн рублей!

качество: WEB-DL 720p
формат: MKV
Видео: H264 mpeg4 AVC, 1280х720, 25 fps, 2930kbps
Аудио: AC3, 128kbps, 44100, stereo
Реклама: большие блоки вырезаны
Общее
Уникальный идентификатор : 173957027303726351468817114988205866454 (0x82DEE7A074381FA5F12C185ED2D87DD6)
Полное имя : D:\Торрент\08. Последний герой. Актеры против экстрасенсов.WEB-DL 720p.mkv
Формат : Matroska
Версия формата : Version 4 / Version 2
Размер файла : 1,41 Гбайт
Продолжительность : 1 ч. 4 м.
Общий поток : 3123 Кбит/сек
Программа кодирования : Lavf57.71.100
Библиотека кодирования : Lavf57.71.100

Видео
Идентификатор : 1
Формат : AVC
Формат/Информация : Advanced Video Codec
Профиль формата : High@L3.1
Параметр CABAC формата : Да
Параметр ReFrames формата : 1 кадр
Параметр GOP формата : M=1, N=12
Идентификатор кодека : V_MPEG4/ISO/AVC
Продолжительность : 1 ч. 4 м.
Битрейт : 2933 Кбит/сек
Ширина : 1280 пикселей
Высота : 720 пикселей
Соотношение сторон : 16:9
Частота кадров : 25,000 кадров/сек
Стандарт вещания : Component
Цветовое пространство : YUV
Субдискретизация насыщенности : 4:2:0
Битовая глубина : 8 бит
Тип развёртки : Прогрессивная
Бит/(Пиксели*Кадры) : 0.127
Размер потока : 1,32 Гбайт (94%)
Язык : English
DURATION : 01:04:26.720000000

Аудио
Идентификатор : 2
Формат : AC-3
Формат/Информация : Audio Coding 3
Расширение режима : CM (complete main)
Идентификатор кодека : A_AC3
Продолжительность : 1 ч. 4 м.
Вид битрейта : Постоянный
Битрейт : 128 Кбит/сек
Каналы : 2 канала
Расположение каналов : Front: L R
Частота : 44,1 КГц
Битовая глубина : 16 бит
Метод сжатия : С потерями
Размер потока : 59,0 Мбайт (4%)
Язык : English / un
DURATION : 01:04:26.714000000
pb.wtf



Скачать Последний герой. Актёры против экстрасенсов, 10-ая серия через торрент https://i109.fastpic.ru/big/2019/0302/c7/2270e88130d6c306a1affd398262ccc7.jpg Скачать, смотреть онлайн Последний герой. Актёры против экстрасенсов, 10-ая серия [04.05.2019, реалити-шоу, WEB-DL 720p] бесплантно в хорошем качестве Описание: Перезапуск легендарного шоу «Последний герой»! Новые герои, новые испытания – в уже известном формате реалити-шоу. Действие ... 10 10 2
Торрент: Зарегистрирован [2019-05-04 18:57] · скачан: 33 раз
Статус: T временная
Размер: 1.26 GB
Как cкачать? Как скачать Последний герой. Актёры против экстрасенсов, 10-ая серия через торрент | UTorrent

28-11-2019 20:33  

Отключить всю рекламу на сайте

04-05-2019 21:55 Последний герой. Актёры против экстрасенсов, 10-ая серия Скачать торрент  

То чувство когда уже как пол года, всех этих шарлатанов разоблачили, а с ними продолжают с снимать шоу и кормить дегенератов "контентом"..pb.wtf



    Дорогой пользователь! Огромная просьба, поблагодарите релизера, оцените раздачу и оставьте свои комментарий, если Вы скачали Последний герой. Актёры против экстрасенсов, 10-ая серия через торрент бесплатно!
    Комментировать посты могут только пользователи прошедшие не сложную регистрацию
    Показать сообщения:    

    Последний герой. Актёры против экстрасенсов, 10-ая серия через торрент
    Скачать бесплатно Последний герой. Актёры против экстрасенсов, 10-ая серия
    Последний герой. Актёры против экстрасенсов, 10-ая серия скачать торрент
    Последний герой. Актёры против экстрасенсов, 10-ая серия смотреть онлайн
    Cкачать фильм Последний герой. Актёры против экстрасенсов, 10-ая серия бесплатно
    Последний герой. Актёры против экстрасенсов, 10-ая серия скачать торрент в хорошем качестве
    Последний герой. Актёры против экстрасенсов, 10-ая серия смотреть онлайн бесплатно в хорошем качестве


    Вы не можете начинать темы
    Вы не можете отвечать на сообщения
    Вы не можете редактировать свои сообщения
    Вы не можете удалять свои сообщения
    Вы не можете голосовать в опросах
    Вы не можете прикреплять файлы к сообщениям
    Вы можете скачивать файлы