Наша группа ВК в очередной раз забанена мы уходим в Телеграм, присоединяйтесь!!!

Лицензия

30

iTunes

мы

iTunes

1

1 сезон

Чернобыль

iTunes

1+1

iTunes

Закатать в асфальт

8 сезон

Игра престолов

1 сезон

Ральф против интернета

ИГРА 18+

pack

ВАЖНО

!!Акция!!

Alien_RageХит недели

RePack

Resident Evil 21
pack

RePack

Metro:Exodus

!!Акция!!

Alien_Rage

RePack

fifa19

RePack

Assassins Creed: Odyssey

RePack

NEED FOR SPEED™ PAYBACK

3 сезон

9 сезон

Бесстыжие 9 сезон

Все сериалы

все сериалы на PB.wtf

RePack

FAR CRY 5
Ребята, катастрофически не хватает 2730р. для оплаты серверов за АПРЕЛЬ (всвязи с блокировками трафик упал в 3 раза), 1-2р., выручайте.
  

Полицейский с Рублёвки. Новогодний беспредел (Илья Куликов) [2018 г., Комедия, HDTV (1080i) Оригинал] pb.wtf

Полицейский с Рублёвки. Новогодний беспредел через торрент pb.wtf

Раздают: 60 [ 0 KB/s ]
Размер: 5.15 GB | Добавлен: 19 д. назад | Торрент скачан:1359 раз
Скачать  

04-05-2019 20:31 Полицейский с Рублёвки. Новогодний беспредел Скачать торрент  

Полицейский с Рублёвки. Новогодний беспредел
Год выпуска: 2018
Страна: Россия
Жанр: Комедия
Продолжительность: 01:27:30
Перевод: Оригинал
Субтитры: нет

Режиссер: Илья Куликов

В ролях: Александр Петров (III), Сергей Бурунов, Александра Бортич, Татьяна Бабенкова, Софья Каштанова, Роман Попов, Рина Гришина, Ирина Вилкова, Ростислав Гулбис, Сергей Штатнов, Александр Дерепко, Сергей Комаров (II)

Описание: В канун нового года отделение полиции «Барвиха Северное» оказывается под угрозой закрытия. Чтобы спасти родной отдел, полицейский с Рублевки Гриша Измайлов вынужден пойти на крайние меры и вместе с оперативниками решает ограбить банк. Он рассчитывает на то, что его коллеги вместе с начальником отдела — Яковлевым легко раскроют это дело, деньги вернут обратно, и все сохранят работу в следующем году. Но все идет не так, как задумал Гриша.

Качество: HDTV (1080i)
Формат: TS
Видео кодек: AVC
Аудио кодек: MP2
Видео: MPEG-4 AVC, (1920x1080),7865 Кбит/с, 25.000 кадра/сек
Аудио#1: MP2, 2 ch, 192 kbps (Rus) 48.0 KHz Оригинал
скриншот   скриншот   скриншот  

Тип потока: Видео
Длительность: 01:27:01
Кодек: AVC
Кодек/описание: Advanced Video Codec
Кодек/профиль: High@L4.0
Кодек/ID: 27
Кодек/CABAC: Yes
Кодек/ReFrames: 4 frames
Размеры изображения: 1920 x 1080 (16:9)
Частота кадров: 25.000 fps
Размер потока: 4.78 GiB (93%)
Битрейт: 7 865 Kbps
Цветовое пространство: YUV
Тип развёртки: MBAFF
Колориметрия: 4:2:0
Глубина: 8 bits
:
Тип потока: Звук #1
Язык: Russian
Длительность: 01:27:01.968
Кодек: MPEG Audio
Кодек/профиль: Layer 2
Кодек/ID: 3
Частота дискретизации: 48.0 KHz
Каналов: 2 channels
Битрейт: 192 Kbps
Битрейт/тип: Constant
Размер потока: 120 MiB (2%)
Метод сжатия: Lossy

pb.wtf



Скачать Полицейский с Рублёвки. Новогодний беспредел через торрент http://pic1.kartinco.top/images/12/vgj89.jpg Скачать фильм Полицейский с Рублёвки. Новогодний беспредел через торрент бесплантно в хорошем качестве Описание: В канун нового года отделение полиции «Барвиха Северное» оказывается под угрозой закрытия. Чтобы спасти родной отдел, полицейский ... 9.6 10 40
Info! Золотая раздача, скачанное не засчитывается.
Торрент: Зарегистрирован [2019-05-04 20:31] · скачан: 1 359 раз
Статус: √ проверено
Размер: 5.15 GB
Как cкачать? Как скачать Полицейский с Рублёвки. Новогодний беспредел через торрент | qTorrent

% Раздел Тема Автор DL S | L
Наши новые фильмы 2018-2019 [ 3.26 GB ] Полицейский с Рублёвки. Новогодний беспредел [2018 WEB-DL 1080p Оригинальный] Яйцеслав Скачать
105 | 1


>> Регистрируемся здесь <<






Отзывы и комментарии о схеме читаем и пишем здесь: ---> Отзывы и комментарии о схеме

Новые благодарочки в телеграм довольных пользователей:
скриншот   скриншот   скриншот   скриншот   скриншот

05-05-2019 03:51 Полицейский с Рублёвки. Новогодний беспредел Скачать торрент  

Ах тыж б...Александр Петров-Третий.Яво Императорское Вяличество,бл....россиянскава синематографа pb.wtf



05-05-2019 06:46 Полицейский с Рублёвки. Новогодний беспредел Скачать торрент  

тут без цензуры хоть?pb.wtf



05-05-2019 06:53 Полицейский с Рублёвки. Новогодний беспредел Скачать торрент  

Спасибо забираю!

paintedjey писал(а):

paintedjey

Конечно с цензуройpb.wtf



05-05-2019 07:09 Полицейский с Рублёвки. Новогодний беспредел Скачать торрент  

Это здесь Бурунов выносит мозг из-за электронной сигареты?pb.wtf



05-05-2019 10:17 Полицейский с Рублёвки. Новогодний беспредел Скачать торрент  

а есть такой же, но без цензуры?pb.wtf



06-05-2019 05:38 Полицейский с Рублёвки. Новогодний беспредел Скачать торрент  

дичьpb.wtf



06-05-2019 11:38 Полицейский с Рублёвки. Новогодний беспредел Скачать торрент  

Sep-ultura писал(а):

Это здесь Бурунов выносит мозг из-за электронной сигареты?

Нет. Это в Мылодрамме. Есть без цензуры на YOUTUBE!pb.wtf



10-05-2019 14:46 Полицейский с Рублёвки. Новогодний беспредел Скачать торрент  

дикий бред.pb.wtf



15-05-2019 18:54 Полицейский с Рублёвки. Новогодний беспредел Скачать торрент  

Спасибо за раздачу. HDRip BDRip будет?pb.wtf



21-05-2019 01:48 Полицейский с Рублёвки. Новогодний беспредел Скачать торрент  

Это дичайший бред, не рекомендую смотреть ЭТО. И сериал пора закрывать, раз на фильм не хватило ума что-то придумать.pb.wtf



    Дорогой пользователь! Огромная просьба, поблагодарите релизера, оцените раздачу и оставьте свои комментарий, если Вы скачали Полицейский с Рублёвки. Новогодний беспредел через торрент бесплатно! Внесите свою лепту в развитие PiratBit!
    Комментировать посты могут только пользователи прошедшие не сложную регистрацию
    Показать сообщения:    

    Полицейский с Рублёвки. Новогодний беспредел через торрент
    Скачать бесплатно Полицейский с Рублёвки. Новогодний беспредел
    Полицейский с Рублёвки. Новогодний беспредел скачать торрент
    Полицейский с Рублёвки. Новогодний беспредел смотреть онлайн
    Cкачать фильм Полицейский с Рублёвки. Новогодний беспредел бесплатно
    Полицейский с Рублёвки. Новогодний беспредел скачать торрент в хорошем качестве
    Полицейский с Рублёвки. Новогодний беспредел смотреть онлайн бесплатно в хорошем качестве


    Вы не можете начинать темы
    Вы не можете отвечать на сообщения
    Вы не можете редактировать свои сообщения
    Вы не можете удалять свои сообщения
    Вы не можете голосовать в опросах
    Вы не можете прикреплять файлы к сообщениям
    Вы можете скачивать файлы