Наша группа ВК в очередной раз забанена мы уходим в Телеграм, присоединяйтесь!!!

Лицензия

30

iTunes

мы

iTunes

1

1 сезон

Чернобыль

iTunes

1+1

iTunes

Закатать в асфальт

8 сезон

Игра престолов

1 сезон

Ральф против интернета

ИГРА 18+

pack

ВАЖНО

!!Акция!!

Alien_RageХит недели

RePack

Resident Evil 21
pack

RePack

Metro:Exodus

!!Акция!!

Alien_Rage

RePack

fifa19

RePack

Assassins Creed: Odyssey

RePack

NEED FOR SPEED™ PAYBACK

3 сезон

9 сезон

Бесстыжие 9 сезон

Все сериалы

все сериалы на PB.wtf

RePack

FAR CRY 5
Ребята, катастрофически не хватает 2730р. для оплаты серверов за АПРЕЛЬ (всвязи с блокировками трафик упал в 3 раза), 1-2р., выручайте.
  

Ковёр-самолёт / Hodja fra Pjort (Карстен Килерих) [2018 г., Мультфильм, BDRip (1080p), Дубляж (iTunes)] pb.wtf

Ковёр-самолёт через торрент pb.wtf

Раздают: 5 [ 0 KB/s ]
Размер: 6.24 GB | Добавлен: 18 д. назад | Торрент скачан:84 раза
Скачать  

05-05-2019 13:30 Ковёр-самолёт Скачать торрент  

Ковёр-самолёт / Hodja fra Pjort
Год выпуска: 2018
Страна: Дания
Жанр: Мультфильм
Продолжительность: 01:21:03
Перевод: Дубляж (iTunes) +Датский
Субтитры: Английские

Режиссер: Карстен Килерих

В ролях: Вибеке Дюхольм, Петер Фрёдин, Эрик Холми, Ребекка Ронде Килерих, Сонни Лэхи, Туре Линдхардт, Михаэль Зуков Мардорф, Сьюзи Пауэр, Биргитте Рааберг, Ларс Ранте

Описание: Главный герой растёт мечтательным мальчиком, который хочет увидеть мир. Его отец, смотря на жизнь куда более реалистично, настаивает, чтобы сын выбросил никчёмные мысли из головы и выучился на портного. Но мальчик не перестаёт мечтать о путешествиях в далекие края, и в один прекрасный день встречает купца ЭльФазу, который готов пожаловать ему ковер-самолёт, если мальчик отправится в большой город под властью султана, найдёт и возвратит ЭльФазе его маленькую внучку...

Качество: BDRip (1080p)
Формат: MKV
Видео кодек: AVC
Аудио кодек: AC3
Видео: MPEG-4 AVC, (1920x804),10 000 Кбит/с, 24.000 кадра/сек
Аудио#1: AC3, 6 ch,384 kbps (Rus) 48.0 KHz дублированный (iTunes)
Аудио#2: AC3, 6 ch,640 kbps (Dan) 48.0 KHz Датский
скриншот   скриншот   скриншот  

Тип потока: Видео
Длительность: 01:21:03
Кодек: AVC
Кодек/описание: Advanced Video Codec
Кодек/профиль: High@L4.1
Кодек/ID: V_MPEG4/ISO/AVC
Кодек/CABAC: Yes
Кодек/ReFrames: 5 frames
Размеры изображения: 1920 x 804 (2.40:1)
Частота кадров: 24.000 fps
Частота кадров/тип: Constant
Размер потока: 5.54 GiB (89%)
Битрейт: 10 000 Kbps
Библиотека кодирования: x264 core 148 r2705kMod 3f5ed56
Цветовое пространство: YUV
Тип развёртки: Progressive
Колориметрия: 4:2:0
Глубина: 8 bit
:
Тип потока: Звук #1
Язык: Russian
Название: iTunes
Длительность: 01:21:03.392
Кодек: AC-3
Кодек/описание: Audio Coding 3
Кодек/ID: A_AC3
Частота дискретизации: 48.0 KHz
Каналов: 6 channels
Битрейт: 384 Kbps
Битрейт/тип: Constant
Размер потока: 223 MiB (3%)
Глубина: 16 bits
Метод сжатия: Lossy
:
Тип потока: Звук #2
Язык: Danish
Название: Original
Длительность: 01:21:03.392
Кодек: AC-3
Кодек/описание: Audio Coding 3
Кодек/ID: A_AC3
Частота дискретизации: 48.0 KHz
Каналов: 6 channels
Битрейт: 640 Kbps
Битрейт/тип: Constant
Размер потока: 371 MiB (6%)
Глубина: 16 bits
Метод сжатия: Lossy
:
Тип потока: Субтитры #1
Язык: English
Формат: UTF-8
Формат/подробно: UTF-8 Plain Text
Название: Full

pb.wtf



Скачать Ковёр-самолёт через торрент http://pic1.kartinco.top/images/12/shfqo.jpg Скачать фильм Ковёр-самолёт через торрент бесплантно в хорошем качестве Описание: Главный герой растёт мечтательным мальчиком, который хочет увидеть мир. Его отец, смотря на жизнь куда более реалистично, ... 8.7 10 7
Торрент: Зарегистрирован [2019-05-05 13:30] · скачан: 84 раз
Статус: √ проверено
Размер: 6.24 GB
Как cкачать? Как скачать Ковёр-самолёт через торрент | qTorrent

% Раздел Тема Автор DL S | L
Иностранные мультфильмы [ 1.42 GB ] Ковёр-самолёт / Hodja fra Pjort [2018 мультфильм BDRip] - Twi7ter Скачать
15 | 3
Зарубежные Мультфильмы (BDRip 1080p, 720p, Blu-ray, BD-Remux) [ 2.4 GB ] Ковёр-самолёт / Hodja fra Pjort [2018 Мультфильм BDRip ()] Бумер Скачать
4 | 0
Зарубежные Мультфильмы (BDRip 1080p, 720p, Blu-ray, BD-Remux) [ 18.72 GB ] Ковёр-самолёт / Hodja fra Pjort [2018 Мультфильм BD Remux ()] Бумер Скачать
3 | 0


>> Регистрируемся здесь <<






Отзывы и комментарии о схеме читаем и пишем здесь: ---> Отзывы и комментарии о схеме

Новые благодарочки в телеграм довольных пользователей:
скриншот   скриншот   скриншот   скриншот   скриншот
    Дорогой пользователь! Огромная просьба, поблагодарите релизера, оцените раздачу и оставьте свои комментарий, если Вы скачали Ковёр-самолёт через торрент бесплатно! Внесите свою лепту в развитие PiratBit!
    Комментировать посты могут только пользователи прошедшие не сложную регистрацию
    Показать сообщения:    

    Ковёр-самолёт через торрент
    Скачать бесплатно Ковёр-самолёт
    Ковёр-самолёт скачать торрент
    Ковёр-самолёт смотреть онлайн
    Cкачать фильм Ковёр-самолёт бесплатно
    Ковёр-самолёт скачать торрент в хорошем качестве
    Ковёр-самолёт смотреть онлайн бесплатно в хорошем качестве


    Вы не можете начинать темы
    Вы не можете отвечать на сообщения
    Вы не можете редактировать свои сообщения
    Вы не можете удалять свои сообщения
    Вы не можете голосовать в опросах
    Вы не можете прикреплять файлы к сообщениям
    Вы можете скачивать файлы